Oppa Thinking - 오빠생각Oppa Thinking
Continuer la lecture

Скачать через торрент [VIDEO] Соломон Кейн Solomon Kane бесплатно русская версия torrent активатор

Статистика раздачи
Размер:  1.64 GB   |    Зарегистрирован:  1 год 3 месяца   |    .torrent скачан:  20 раз   |   
Раздают:  1  
   
загрузка...
 
Автор Сообщение

Galfimbul

avatar Galfimbul


<span class="post-font-serif1">Соломон Кейн / Solomon Kane</span>

<span class="post-font-serif1">Год выпуска: 2009
Страна: Франция, Великобритания, Чехия
Жанр: фэнтези, боевик, приключения
Продолжительность: 01:44:10
Перевод №1: русский Профессиональный (полное дублирование) Blu-ray 1080p
Перевод №2: украинский Профессиональный (полное дублирование) Blu-ray 1080p
Перевод №3: русский Авторский (одноголосый, закадровый) Немахов
Оригинальная дорожка: Есть
Cубтитры: русские (Full, Full-SDH-воронин), украинские (Full), английские (Full)</span>
<span class="post-font-serif1">Режиссер: Майкл Дж. Бассетт / Michael J. Bassett</span>
<span class="post-font-serif1">В ролях: Джеймс Пьюрфой /James Purefoy/, Марк О’Нил /Mark O'Neal/, Роберт Орр /Robert Orr/, Ричард Райан /Richard Ryan/, Франтишек Дик /Frantisek Deak/, Йен Уайт /Ian Whyte/, Макс фон Сюдов /Max von Sydow/, Рейчел Херд-Вуд /Rachel Hurd-Wood/.. и другие .</span>
<span class="post-font-serif1">Описание: По мотивам рассказов Роберта Ирвина Говарда. Соломон Кейн — английский солдат XVI века, который осознал, что его бесчеловечные и жестокие поступки навечно прокляли его душу. Вознамерившись искупить свои грехи, Кейн клянется жить в мире и добродетели, но когда на землю ступают темные силы, ему не остается ничего, как дать бой.</span>
<span class="post-font-serif1">Релиз группы </span>
<span class="post-font-serif1">Качество: HDRip / рип с BDRip 720p
Формат: MP4
Видео кодек: H.264
Аудио кодек: AAC
Видео: 960x408 AR:2.35 1733 kbps 24.000 fps
Аудио №1: [Russian] 2ch 48 kHz 128 kbps - [Dub] Профессиональный (полное дублирование) Blu-ray 1080p
Аудио №2: [Ukrainian] 2ch 48 kHz 128 kbps - [Dub] Профессиональный (полное дублирование) Blu-ray 1080p
Аудио №3: [Russian] 2ch 48 kHz 128 kbps - [VO] Авторский (одноголосый, закадровый) Немахов
Аудио №4: [English] 2ch 48 kHz 128 kbps - Оригинал</span>
avs [info]: 960x408p 1:1 @ 24/1 fps (cfr)
x264 [info]: using SAR=1/1
x264 [info]: using cpu capabilities: MMX2 SSE2Fast SSSE3 SSE4.2 AVX FMA3 AVX2 LZCNT BMI2
x264 [info]: profile High, level 4.1

x264 [info]: frame I:1446 Avg QP:16.55 size: 50816
x264 [info]: frame P:35523 Avg QP:19.89 size: 16940
x264 [info]: frame B:113031 Avg QP:22.00 size: 5990
x264 [info]: consecutive B-frames: 3.5% 3.7% 9.8% 24.4% 13.5% 37.7% 3.6% 2.2% 1.5%
x264 [info]: mb I I16..4: 6.1% 75.6% 18.3%
x264 [info]: mb P I16..4: 1.2% 10.0% 1.6% P16..4: 32.9% 36.1% 10.4% 0.0% 0.0% skip: 7.8%
x264 [info]: mb B I16..4: 0.1% 1.0% 0.2% B16..8: 35.6% 18.9% 3.2% direct: 5.5% skip:35.4% L0:43.5% L1:45.9% BI:10.6%
x264 [info]: 8x8 transform intra:77.4% inter:59.9%
x264 [info]: direct mvs spatial:97.1% temporal:2.9%
x264 [info]: coded y,uvDC,uvAC intra: 82.3% 66.6% 37.6% inter: 25.4% 17.3% 4.4%
x264 [info]: i16 v,h,dc,p: 30% 15% 10% 46%
x264 [info]: i8 v,h,dc,ddl,ddr,vr,hd,vl,hu: 11% 6% 9% 10% 14% 13% 13% 12% 12%
x264 [info]: i4 v,h,dc,ddl,ddr,vr,hd,vl,hu: 13% 6% 10% 9% 14% 13% 12% 11% 12%
x264 [info]: i8c dc,h,v,p: 36% 30% 20% 14%
x264 [info]: Weighted P-Frames: Y:19.3% UV:11.9%
x264 [info]: ref P L0: 49.0% 10.7% 16.0% 7.7% 5.1% 3.7% 3.1% 2.2% 1.9% 0.6% 0.1%
x264 [info]: ref B L0: 77.1% 10.1% 4.9% 3.2% 2.0% 1.4% 0.8% 0.5%
x264 [info]: ref B L1: 95.4% 4.6%
x264 [info]: kb/s:1730.89

encoded 150000 frames, 15.46 fps, 1730.89 kb/s
GeneralComplete name : D:\Torrents\Solomon Kane.2009.HDRip.x264.960x.rip by Frost O.S.mp4Format : MPEG-4Format profile : Base MediaCodec ID : isom (isom/avc1/iso2)File size : 1.64 GiBDuration : 1 h 44 minOverall bit rate mode : VariableOverall bit rate : 2 260 kb/sMovie name : Solomon Kane 2009 HDRip x264 960x rip by Frost O SGenre : ActionContentType : Short FilmEncoded date : UTC 2016-12-31 14:29:06Tagged date : UTC 2016-12-31 14:32:52Writing application : MkvToMp4 version: 0.224 (x64)Cover : YesComment : rip by Frost O.SLongDescription : По мотивам рассказов Роберта Ирвина Говарда. Соломон Кейн — английский солдат XVI века, который осознал, что его бесчеловечные и жестокие поступки навечно прокляли его душу. Вознамерившись искупить свои грехи, Кейн клянется жить в мире и добродетели, но когда на землю ступают темные силы, ему не остается ничего, как дать бой.

VideoID : 1Format : AVCFormat/Info : Advanced Video CodecFormat profile : [email protected] settings, CABAC : YesFormat settings, ReFrames : 9 framesCodec ID : avc1Codec ID/Info : Advanced Video CodingDuration : 1 h 44 minBit rate : 1 733 kb/sMaximum bit rate : 5 524 kb/sWidth : 960 pixelsHeight : 408 pixelsDisplay aspect ratio : 2.35:1Frame rate mode : ConstantFrame rate : 24.000 FPSColor space : YUVChroma subsampling : 4:2:0Bit depth : 8 bitsScan type : ProgressiveBits/(Pixel*Frame) : 0.184Stream size : 1.26 GiB (77%)Writing library : x264 core 148 r2705 3f5ed56Encoding settings : cabac=1 / ref=9 / deblock=1:-2:-1 / analyse=0x3:0x113 / me=umh / subme=11 / psy=1 / psy_rd=1.10:0.10 / mixed_ref=1 / me_range=32 / chroma_me=1 / trellis=2 / 8x8dct=1 / cqm=0 / deadzone=21,11 / fast_pskip=0 / chroma_qp_offset=-3 / threads=6 / lookahead_threads=1 / sliced_threads=0 / nr=0 / decimate=0 / interlaced=0 / bluray_compat=0 / constrained_intra=0 / bframes=8 / b_pyramid=2 / b_adapt=2 / b_bias=0 / direct=3 / weightb=1 / open_gop=0 / weightp=2 / keyint=250 / keyint_min=24 / scenecut=40 / intra_refresh=0 / rc=2pass / mbtree=0 / bitrate=1733 / ratetol=1.0 / qcomp=0.65 / qpmin=0 / qpmax=69 / qpstep=4 / cplxblur=20.0 / qblur=0.5 / ip_ratio=1.40 / pb_ratio=1.30 / aq=2:0.90Language : EnglishEncoded date : UTC 2016-12-31 14:29:06Tagged date : UTC 2016-12-31 14:30:42Color range : LimitedColor primaries : BT.709Transfer characteristics : BT.709Matrix coefficients : BT.709

Audio #1ID : 2Format : AACFormat/Info : Advanced Audio CodecFormat profile : LCCodec ID : 40Duration : 1 h 44 minBit rate mode : VariableBit rate : 128 kb/sMaximum bit rate : 132 kb/sChannel(s) : 2 channelsChannel positions : Front: L RSampling rate : 48.0 kHzFrame rate : 46.875 FPS (1024 spf)Compression mode : LossyStream size : 95.4 MiB (6%)Title : Dub_ Blu_ray / Dub_ Blu_rayLanguage : RussianDefault : YesAlternate group : 1Encoded date : UTC 2016-12-31 14:30:06Tagged date : UTC 2016-12-31 14:30:42

Audio #2ID : 3Format : AACFormat/Info : Advanced Audio CodecFormat profile : LCCodec ID : 40Duration : 1 h 44 minBit rate mode : VariableBit rate : 128 kb/sMaximum bit rate : 133 kb/sChannel(s) : 2 channelsChannel positions : Front: L RSampling rate : 48.0 kHzFrame rate : 46.875 FPS (1024 spf)Compression mode : LossyStream size : 95.4 MiB (6%)Title : Dub_ Blu_ray / Dub_ Blu_rayLanguage : UkrainianDefault : NoAlternate group : 1Encoded date : UTC 2016-12-31 14:30:16Tagged date : UTC 2016-12-31 14:30:42

Audio #3ID : 4Format : AACFormat/Info : Advanced Audio CodecFormat profile : LCCodec ID : 40Duration : 1 h 44 minBit rate mode : VariableBit rate : 128 kb/sMaximum bit rate : 132 kb/sChannel(s) : 2 channelsChannel positions : Front: L RSampling rate : 48.0 kHzFrame rate : 46.875 FPS (1024 spf)Compression mode : LossyStream size : 95.4 MiB (6%)Title : Vo_ Yu.Nemakhov / Vo_ Yu.NemakhovLanguage : RussianDefault : NoAlternate group : 1Encoded date : UTC 2016-12-31 14:30:24Tagged date : UTC 2016-12-31 14:30:42

Audio #4ID : 5Format : AACFormat/Info : Advanced Audio CodecFormat profile : LCCodec ID : 40Duration : 1 h 44 minBit rate mode : VariableBit rate : 128 kb/sMaximum bit rate : 132 kb/sChannel(s) : 2 channelsChannel positions : Front: L RSampling rate : 48.0 kHzFrame rate : 46.875 FPS (1024 spf)Compression mode : LossyStream size : 95.4 MiB (6%)Title : Original / OriginalLanguage : EnglishDefault : NoAlternate group : 1Encoded date : UTC 2016-12-31 14:30:32Tagged date : UTC 2016-12-31 14:30:42

Text #1ID : 6Format : Timed TextMuxing mode : sbtlCodec ID : tx3gDuration : 1 h 37 minBit rate mode : VariableBit rate : 61 b/sStream size : 43.5 KiB (0%)Title : Full / FullLanguage : RussianDefault : YesForced : NoAlternate group : 2Encoded date : UTC 2016-12-31 14:30:42Tagged date : UTC 2016-12-31 14:30:42

Text #2ID : 7Format : Timed TextMuxing mode : sbtlCodec ID : tx3gDuration : 1 h 35 minBit rate mode : VariableBit rate : 59 b/sStream size : 41.3 KiB (0%)Title : Full_ SDH_ voronine / Full_ SDH_ voronineLanguage : RussianDefault : NoForced : NoAlternate group : 2Encoded date : UTC 2016-12-31 14:30:42Tagged date : UTC 2016-12-31 14:30:42

Text #3ID : 8Format : Timed TextMuxing mode : sbtlCodec ID : tx3gDuration : 1 h 35 minBit rate mode : VariableBit rate : 55 b/sStream size : 38.1 KiB (0%)Title : Full / FullLanguage : UkrainianDefault : NoForced : NoAlternate group : 2Encoded date : UTC 2016-12-31 14:30:42Tagged date : UTC 2016-12-31 14:30:42

Text #4ID : 9Format : Timed TextMuxing mode : sbtlCodec ID : tx3gDuration : 1 h 35 minBit rate mode : VariableBit rate : 37 b/sStream size : 25.6 KiB (0%)Title : Full / FullLanguage : EnglishDefault : NoForced : NoAlternate group : 2Encoded date : UTC 2016-12-31 14:30:42Tagged date : UTC 2016-12-31 14:30:42


Трекер:  [ 31-Дек-2016 17:00 ]

  

Скачать .torrent

Размер .torrent файла 17 KB


Размер: 1.64 GB
Хэш (hash) релиза: 41c1119665ff3c01ffd875984b33e74730a60669

Еще никто не оставлял запись к записи скачать торрент [VIDEO] Соломон Кейн Solomon Kane . Будь первым!

!Обратная связь