Watch movie | bipsmedia | American Woman (2018)

Скачать через торрент [VIDEO] Перевозчик: Наследие The Transporter Refueled бесплатно русская версия torrent активатор

Статистика раздачи
Размер:  1001 MB   |    Зарегистрирован:  1 год 6 месяцев   |    .torrent скачан:  25 раз   |   
Раздают:  1  
   
загрузка...
 
Автор Сообщение

Galfimbul

avatar Galfimbul


<span class="post-font-serif1">Перевозчик: Наследие / The Transporter Refueled</span>

<span class="post-font-serif1">Год выпуска: 2015
Страна: Франция, Китай, Бельгия / Canal+ [fr]
Жанр: боевик, триллер, криминал
Продолжительность: 01:35:54
Перевод: русский Профессиональный (полное дублирование) BD RUS |Лицензия|
Cубтитры: нет</span>
<span class="post-font-serif1">Режиссер: Камиль Деламарр / Camille Delamarre</span>
<span class="post-font-serif1">В ролях: Эд Скрейн, Рэй Стивенсон, Лоан Шабаноль, Габриэлла Райт, Татьяна Пайкович, Венься Ю, Радивойе Буквич, Ноэми Ленуар, Юрий Колокольников, Ленн Кудрявицки и другие .</span>
<span class="post-font-serif1">Описание: Фрэнк Мартин — самый высококвалифицированный перевозчик, которого только можно нанять за деньги. Ставки выше, технологии поднялись на более высокий уровень, но правила те же: никогда не изменять условия сделки, никаких имен и никогда не открывать груз.
Когда Фрэнка нанимает хитроумная красотка Анна и ее три очаровательные сообщницы, он быстро выясняет, что его водят за нос. Анна и ее команда похитили его отца, чтобы заставить Фрэнка помочь им разобраться с группой безжалостных торговцев людьми.</span>
<span class="post-font-serif1">Релиз группы </span>
<span class="post-font-serif1">Качество: HDRip / рип с BDRip 720p (BLUEBIRD)
Формат: MP4
Видео кодек: H.264
Аудио кодек: AAC
Видео: 960x400 AR:2.40 1325 kbps 23.976 fps
Аудио: [Russian] 2ch 48 kHz 128 kbps - [Dub] Профессиональный (полное дублирование) BD RUS |Лицензия|</span>
avs [info]: 960x400p 1:1 @ 2997/125 fps (cfr)
x264 [info]: using SAR=1/1
x264 [info]: using cpu capabilities: MMX2 SSE2Fast SSSE3 SSE4.2 AVX FMA3 AVX2 LZCNT BMI2
x264 [info]: profile High, level 4.1

x264 [info]: frame I:1992 Avg QP:18.41 size: 42805
x264 [info]: frame P:37785 Avg QP:22.48 size: 12918
x264 [info]: frame B:98184 Avg QP:24.17 size: 3850
x264 [info]: consecutive B-frames: 6.2% 6.8% 13.8% 23.8% 17.6% 26.2% 3.9% 1.7%
x264 [info]: mb I I16..4: 8.3% 69.7% 22.0%
x264 [info]: mb P I16..4: 1.6% 10.7% 2.3% P16..4: 34.5% 35.1% 8.1% 0.0% 0.0% skip: 7.7%
x264 [info]: mb B I16..4: 0.2% 1.0% 0.2% B16..8: 35.3% 15.9% 2.0% direct: 3.1% skip:42.4% L0:41.6% L1:46.6% BI:11.8%
x264 [info]: 8x8 transform intra:72.7% inter:67.5%
x264 [info]: direct mvs spatial:96.7% temporal:3.3%
x264 [info]: coded y,uvDC,uvAC intra: 80.0% 78.1% 48.2% inter: 17.2% 14.5% 4.5%
x264 [info]: i16 v,h,dc,p: 13% 21% 4% 62%
x264 [info]: i8 v,h,dc,ddl,ddr,vr,hd,vl,hu: 8% 9% 5% 10% 15% 14% 15% 12% 14%
x264 [info]: i4 v,h,dc,ddl,ddr,vr,hd,vl,hu: 10% 12% 5% 9% 14% 13% 14% 10% 13%
x264 [info]: i8c dc,h,v,p: 32% 29% 19% 20%
x264 [info]: Weighted P-Frames: Y:13.2% UV:8.6%
x264 [info]: ref P L0: 55.4% 13.3% 15.8% 5.5% 4.0% 3.0% 2.6% 0.4% 0.1%
x264 [info]: ref B L0: 82.8% 8.8% 4.8% 2.0% 1.1% 0.4%
x264 [info]: ref B L1: 95.9% 4.1%
x264 [info]: kb/s:1322.75

encoded 137961 frames, 18.98 fps, 1322.75 kb/s
GeneralComplete name : D:\Torrents\The Transporter Refueled.2015.HDRip.x264.960x.rip by Frost O.S.mp4Format : MPEG-4Format profile : Base MediaCodec ID : isom (isom/avc1/iso2)File size : 1 001 MiBDuration : 1 h 35 minOverall bit rate mode : VariableOverall bit rate : 1 459 kb/sMovie name : The Transporter Refueled 2015 HDRip x264 960x rip by Frost O SGenre : ActionContentType : Short FilmEncoded date : UTC 2016-12-31 14:47:28Tagged date : UTC 2016-12-31 14:48:59Writing application : MkvToMp4 version: 0.224 (x64)Cover : YesComment : rip by Frost O.SLongDescription : Фрэнк Мартин — самый высококвалифицированный перевозчик, которого только можно нанять за деньги. Ставки выше, технологии поднялись на более высокий уровень, но правила те же: никогда не изменять условия сделки, никаких имен и никогда не открывать груз. Когда Фрэнка нанимает хитроумная красотка Анна и ее три очаровательные сообщницы, он быстро выясняет, что его водят за нос. Анна и ее команда похитили его отца, чтобы заставить Фрэнка помочь им разобраться с группой безжалостных торговцев людьми.

VideoID : 1Format : AVCFormat/Info : Advanced Video CodecFormat profile : [email protected] settings, CABAC : YesFormat settings, ReFrames : 7 framesCodec ID : avc1Codec ID/Info : Advanced Video CodingDuration : 1 h 35 minBit rate : 1 325 kb/sMaximum bit rate : 5 150 kb/sWidth : 960 pixelsHeight : 400 pixelsDisplay aspect ratio : 2.40:1Frame rate mode : ConstantFrame rate : 23.976 (24000/1001) FPSOriginal frame rate : 23.976 (23976/1000) FPSColor space : YUVChroma subsampling : 4:2:0Bit depth : 8 bitsScan type : ProgressiveBits/(Pixel*Frame) : 0.144Stream size : 907 MiB (91%)Writing library : x264 core 148 r2705 3f5ed56Encoding settings : cabac=1 / ref=7 / deblock=1:-2:-2 / analyse=0x3:0x113 / me=umh / subme=11 / psy=1 / psy_rd=0.90:0.00 / mixed_ref=1 / me_range=32 / chroma_me=1 / trellis=2 / 8x8dct=1 / cqm=0 / deadzone=21,11 / fast_pskip=0 / chroma_qp_offset=-2 / threads=6 / lookahead_threads=1 / sliced_threads=0 / nr=0 / decimate=0 / interlaced=0 / bluray_compat=0 / constrained_intra=0 / bframes=7 / b_pyramid=2 / b_adapt=2 / b_bias=0 / direct=3 / weightb=1 / open_gop=0 / weightp=2 / keyint=250 / keyint_min=23 / scenecut=40 / intra_refresh=0 / rc=2pass / mbtree=0 / bitrate=1325 / ratetol=1.0 / qcomp=0.65 / qpmin=0 / qpmax=69 / qpstep=4 / cplxblur=20.0 / qblur=0.5 / ip_ratio=1.40 / pb_ratio=1.30 / aq=2:0.90Language : EnglishEncoded date : UTC 2016-12-31 14:47:28Tagged date : UTC 2016-12-31 14:47:59Color range : LimitedColor primaries : BT.709Transfer characteristics : BT.709Matrix coefficients : BT.709

AudioID : 2Format : AACFormat/Info : Advanced Audio CodecFormat profile : LCCodec ID : 40Duration : 1 h 35 minBit rate mode : VariableBit rate : 128 kb/sMaximum bit rate : 135 kb/sChannel(s) : 2 channelsChannel positions : Front: L RSampling rate : 48.0 kHzFrame rate : 46.875 FPS (1024 spf)Compression mode : LossyStream size : 87.8 MiB (9%)Title : Dub_ BD Rus _Licenziya_ / Dub_ BD Rus _Licenziya_Language : RussianDefault : YesAlternate group : 1Encoded date : UTC 2016-12-31 14:47:48Tagged date : UTC 2016-12-31 14:47:59


Трекер:  [ 31-Дек-2016 17:00 ]

  

Скачать .torrent

Размер .torrent файла 20 KB


Размер: 1001 MB
Хэш (hash) релиза: f75bc177157807d225eaa23089d785fc6712eb3d

Торренты, похожие на [VIDEO] Перевозчик: Наследие The Transporter Refueled скачать торрент

Форум Название Автор Размер S L Добавлен
Видео (Фильмы/Клипы) ·· [VIDEO] Перевозчик: Наследие / The Transporter Refueled (Камиль Деламарр / Camille Delamarre) [2015, боевик, триллер, криминал, HDRip] [MP4, 480x] Dub Galfimbul 456507301435 MB 0 0 1483198640

18:37

31-Дек-16

Видео (Фильмы/Клипы) ·· [VIDEO] Перевозчик: Наследие / The Transporter Refueled (Камиль Деламарр) [2015, боевик, триллер, криминал, BDRip] [MP4, 1280x] Galfimbul 18172148411.69 GB 0 0 1450901023

23:03

23-Дек-15

Еще никто не оставлял запись к записи скачать торрент [VIDEO] Перевозчик: Наследие The Transporter Refueled . Будь первым!

!Обратная связь