Mission Impossible (5 Films) FRENCH HDlight 1080p 1996-2015 | Télécharger Jack et la mécanique du cœur | Victor Mature

Скачать через торрент [VIDEO] Лемони Сникет: 33 несчастья A Series of Unfortunate Events бесплатно русская версия torrent активатор

Статистика раздачи
Размер:  1.8 GB   |    Зарегистрирован:  1 год 6 месяцев   |    .torrent скачан:  24 раза   |   
Раздают:  1  
   
загрузка...
 
Автор Сообщение

Galfimbul

avatar Galfimbul


<span class="post-font-serif1">Лемони Сникет: 33 несчастья / A Series of Unfortunate Events</span>

<span class="post-font-serif1">Год выпуска: 2004
Страна: США, Германия
Жанр: фэнтези, комедия, приключения, семейный
Продолжительность: 01:47:58
Перевод №1: русский Профессиональный (полное дублирование)
Перевод №2: русский Профессиональный (многоголосый, закадровый) Tycoon
Перевод №3: русский Профессиональный (двухголосый, закадровый) D2Lab
Перевод №4: русский Авторский (одноголосый, закадровый) В.Королев
Оригинальная дорожка: Есть
Cубтитры: Russian (R5), Russian (Tycoon), Russian (В.Бродовой), Russian (на речь Cолнышко), English full, English SDH, English (на речь Cолнышко)</span>
<span class="post-font-serif1">Режиссер: Брэд Силберлинг / Brad Silberling</span>
<span class="post-font-serif1">В ролях: Джим Керри, Лиам Эйкен, Эмили Браунинг, Кара Хоффман, Шелби Хоффман, Джуд Лоу, Тимоти Сполл, Кэтрин О’Хара, Билли Коннолли, Мэрил Стрип и другие .</span>
<span class="post-font-serif1">Описание: В один скверный пасмурный день на юных Бодлеров - Вайолет, Клауса и их маленькую сестричку Солнышко - обрушились несчастья. Страшный пожар лишил их дома и любящих родителей. В жизни сирот появился опекун Граф Олаф, который, как оказалось, совсем не граф, а злой гений, актёр и мастер переодеваний, стремящийся завладеть наследством несчастных детишек....</span>
<span class="post-font-serif1">Релиз группы </span>
<span class="post-font-serif1">Качество: HDRip / <a href="viewtopic.php?t=4089057" class="postLink">рип с BDRip 1080p</a>
Формат: MP4
Видео кодек: H.264
Аудио кодек: AAC
Видео: 960x540 AR:16/9 1719 kbps 23.976 fps
Аудио №1: [Russian] 2ch 48 kHz 128 kbps - [Dub] Профессиональный (полное дублирование)
Аудио №2: [Russian] 2ch 48 kHz 128 kbps - [MVO] Профессиональный (многоголосый, закадровый) Tycoon
Аудио №3: [Russian] 2ch 48 kHz 128 kbps - [DVO] Профессиональный (двухголосый, закадровый) D2Lab
Аудио №4: [Russian] 2ch 48 kHz 128 kbps - [VO] Авторский (одноголосый, закадровый) В.Королев
Аудио №5: [English] 2ch 48 kHz 128 kbps - [Original] Английский</span>
avs [info]: 960x540p 1:1 @ 2997/125 fps (cfr)
x264 [info]: using SAR=1/1
x264 [info]: using cpu capabilities: MMX2 SSE2Fast SSSE3 SSE4.2 AVX FMA3 AVX2 LZCNT BMI2
x264 [info]: profile High, level 4.1

x264 [info]: frame I:1281 Avg QP:16.45 size: 74760
x264 [info]: frame P:32119 Avg QP:19.85 size: 19323
x264 [info]: frame B:121927 Avg QP:22.15 size: 5537
x264 [info]: consecutive B-frames: 2.1% 2.5% 6.6% 13.8% 16.8% 46.0% 4.5% 2.4% 1.4% 3.1% 0.8%
x264 [info]: mb I I16..4: 6.4% 72.2% 21.4%
x264 [info]: mb P I16..4: 0.7% 6.9% 1.2% P16..4: 35.0% 37.1% 12.7% 0.0% 0.0% skip: 6.2%
x264 [info]: mb B I16..4: 0.1% 0.5% 0.1% B16..8: 35.3% 18.3% 2.8% direct: 4.0% skip:38.9% L0:42.5% L1:45.0% BI:12.5%
x264 [info]: 8x8 transform intra:76.2% inter:56.5%
x264 [info]: direct mvs spatial:98.1% temporal:1.9%
x264 [info]: coded y,uvDC,uvAC intra: 83.9% 74.2% 45.1% inter: 17.8% 12.1% 3.2%
x264 [info]: i16 v,h,dc,p: 30% 16% 11% 44%
x264 [info]: i8 v,h,dc,ddl,ddr,vr,hd,vl,hu: 10% 8% 10% 9% 13% 13% 13% 12% 13%
x264 [info]: i4 v,h,dc,ddl,ddr,vr,hd,vl,hu: 14% 8% 9% 8% 14% 13% 12% 11% 12%
x264 [info]: i8c dc,h,v,p: 39% 29% 19% 13%
x264 [info]: Weighted P-Frames: Y:7.5% UV:3.2%
x264 [info]: ref P L0: 50.8% 12.7% 17.7% 6.0% 5.2% 3.7% 3.7% 0.2% 0.0%
x264 [info]: ref B L0: 75.9% 12.7% 6.2% 2.8% 1.8% 0.6%
x264 [info]: ref B L1: 93.5% 6.5%
x264 [info]: kb/s:1718.30

encoded 155327 frames, 12.45 fps, 1718.30 kb/s
GeneralComplete name : D:\Torrents\A Series of Unfortunate Events.2004.HDRip.x264.960x.rip by Frost O.S.mp4Format : MPEG-4Format profile : Base MediaCodec ID : isom (isom/avc1/iso2)File size : 1.80 GiBDuration : 1 h 47 minOverall bit rate mode : VariableOverall bit rate : 2 381 kb/sMovie name : A Series of Unfortunate Events 2004 HDRip x264 960x rip by Frost O SGenre : FamilyContentType : Short FilmEncoded date : UTC 2016-12-31 14:12:01Tagged date : UTC 2016-12-31 14:15:58Writing application : MkvToMp4 version: 0.224 (x64)Cover : YesComment : rip by Frost O.SLongDescription : В один скверный пасмурный день на юных Бодлеров - Вайолет, Клауса и их маленькую сестричку Солнышко - обрушились несчастья. Страшный пожар лишил их дома и любящих родителей. В жизни сирот появился опекун Граф Олаф, который, как оказалось, совсем не граф, а злой гений, актёр и мастер переодеваний, стремящийся завладеть наследством несчастных детишек....

VideoID : 1Format : AVCFormat/Info : Advanced Video CodecFormat profile : [email protected] settings, CABAC : YesFormat settings, ReFrames : 7 framesCodec ID : avc1Codec ID/Info : Advanced Video CodingDuration : 1 h 47 minBit rate : 1 719 kb/sMaximum bit rate : 6 023 kb/sWidth : 960 pixelsHeight : 540 pixelsDisplay aspect ratio : 16:9Frame rate mode : ConstantFrame rate : 23.976 (24000/1001) FPSOriginal frame rate : 23.976 (23976/1000) FPSColor space : YUVChroma subsampling : 4:2:0Bit depth : 8 bitsScan type : ProgressiveBits/(Pixel*Frame) : 0.138Stream size : 1.30 GiB (72%)Writing library : x264 core 148 r2705 3f5ed56Encoding settings : cabac=1 / ref=7 / deblock=1:-3:-3 / analyse=0x3:0x113 / me=umh / subme=11 / psy=1 / psy_rd=1.05:0.05 / mixed_ref=1 / me_range=32 / chroma_me=1 / trellis=2 / 8x8dct=1 / cqm=0 / deadzone=21,11 / fast_pskip=0 / chroma_qp_offset=-3 / threads=6 / lookahead_threads=1 / sliced_threads=0 / nr=0 / decimate=0 / interlaced=0 / bluray_compat=0 / constrained_intra=0 / bframes=10 / b_pyramid=2 / b_adapt=2 / b_bias=0 / direct=3 / weightb=1 / open_gop=0 / weightp=2 / keyint=250 / keyint_min=23 / scenecut=40 / intra_refresh=0 / rc=2pass / mbtree=0 / bitrate=1719 / ratetol=1.0 / qcomp=0.75 / qpmin=0 / qpmax=69 / qpstep=4 / cplxblur=20.0 / qblur=0.5 / ip_ratio=1.40 / pb_ratio=1.30 / aq=3:0.80Language : EnglishEncoded date : UTC 2016-12-31 14:12:01Tagged date : UTC 2016-12-31 14:13:21Color range : LimitedColor primaries : BT.709Transfer characteristics : BT.709Matrix coefficients : BT.709

Audio #1ID : 2Format : AACFormat/Info : Advanced Audio CodecFormat profile : LCCodec ID : 40Duration : 1 h 47 minBit rate mode : VariableBit rate : 128 kb/sMaximum bit rate : 135 kb/sChannel(s) : 2 channelsChannel positions : Front: L RSampling rate : 48.0 kHzFrame rate : 46.875 FPS (1024 spf)Compression mode : LossyStream size : 98.8 MiB (5%)Title : Dub / DubLanguage : RussianDefault : YesAlternate group : 1Encoded date : UTC 2016-12-31 14:12:48Tagged date : UTC 2016-12-31 14:13:21

Audio #2ID : 3Format : AACFormat/Info : Advanced Audio CodecFormat profile : LCCodec ID : 40Duration : 1 h 47 minBit rate mode : VariableBit rate : 128 kb/sMaximum bit rate : 135 kb/sChannel(s) : 2 channelsChannel positions : Front: L RSampling rate : 48.0 kHzFrame rate : 46.875 FPS (1024 spf)Compression mode : LossyStream size : 98.9 MiB (5%)Title : MVO_ Tycoon / MVO_ TycoonLanguage : RussianDefault : NoAlternate group : 1Encoded date : UTC 2016-12-31 14:12:55Tagged date : UTC 2016-12-31 14:13:21

Audio #3ID : 4Format : AACFormat/Info : Advanced Audio CodecFormat profile : LCCodec ID : 40Duration : 1 h 47 minBit rate mode : VariableBit rate : 128 kb/sMaximum bit rate : 135 kb/sChannel(s) : 2 channelsChannel positions : Front: L RSampling rate : 48.0 kHzFrame rate : 46.875 FPS (1024 spf)Compression mode : LossyStream size : 98.9 MiB (5%)Title : DVO_ D2Lab / DVO_ D2LabLanguage : RussianDefault : NoAlternate group : 1Encoded date : UTC 2016-12-31 14:13:02Tagged date : UTC 2016-12-31 14:13:21

Audio #4ID : 5Format : AACFormat/Info : Advanced Audio CodecFormat profile : LCCodec ID : 40Duration : 1 h 47 minBit rate mode : VariableBit rate : 128 kb/sMaximum bit rate : 135 kb/sChannel(s) : 2 channelsChannel positions : Front: L RSampling rate : 48.0 kHzFrame rate : 46.875 FPS (1024 spf)Compression mode : LossyStream size : 98.9 MiB (5%)Title : VO_ Korolev / VO_ KorolevLanguage : RussianDefault : NoAlternate group : 1Encoded date : UTC 2016-12-31 14:13:08Tagged date : UTC 2016-12-31 14:13:21

Audio #5ID : 6Format : AACFormat/Info : Advanced Audio CodecFormat profile : LCCodec ID : 40Duration : 1 h 47 minBit rate mode : VariableBit rate : 128 kb/sMaximum bit rate : 135 kb/sChannel(s) : 2 channelsChannel positions : Front: L RSampling rate : 48.0 kHzFrame rate : 46.875 FPS (1024 spf)Compression mode : LossyStream size : 98.9 MiB (5%)Title : Original / OriginalLanguage : EnglishDefault : NoAlternate group : 1Encoded date : UTC 2016-12-31 14:13:14Tagged date : UTC 2016-12-31 14:13:21

Text #1ID : 7Format : Timed TextMuxing mode : sbtlCodec ID : tx3gDuration : 1 h 46 minBit rate mode : VariableBit rate : 97 b/sStream size : 76.0 KiB (0%)Title : R5 / R5Language : RussianDefault : YesForced : NoAlternate group : 2Encoded date : UTC 2016-12-31 14:13:21Tagged date : UTC 2016-12-31 14:13:21

Text #2ID : 8Format : Timed TextMuxing mode : sbtlCodec ID : tx3gDuration : 1 h 35 minBit rate mode : VariableBit rate : 118 b/sStream size : 82.3 KiB (0%)Title : Tycoon / TycoonLanguage : RussianDefault : NoForced : NoAlternate group : 2Encoded date : UTC 2016-12-31 14:13:21Tagged date : UTC 2016-12-31 14:13:21

Text #3ID : 9Format : Timed TextMuxing mode : sbtlCodec ID : tx3gDuration : 1 h 37 minBit rate mode : VariableBit rate : 122 b/sStream size : 87.2 KiB (0%)Title : V.Brodovoi / V.BrodovoiLanguage : RussianDefault : NoForced : NoAlternate group : 2Encoded date : UTC 2016-12-31 14:13:21Tagged date : UTC 2016-12-31 14:13:21

Text #4ID : 10Format : Timed TextMuxing mode : sbtlCodec ID : tx3gDuration : 1 h 25 minBit rate mode : VariableBit rate : 1 b/sStream size : 753 Bytes (0%)Title : na rech Sovnushko / na rech SovnushkoLanguage : RussianDefault : NoForced : NoAlternate group : 2Encoded date : UTC 2016-12-31 14:13:21Tagged date : UTC 2016-12-31 14:13:21

Text #5ID : 11Format : Timed TextMuxing mode : sbtlCodec ID : tx3gDuration : 1 h 25 minBit rate mode : VariableBit rate : 1 b/sStream size : 488 Bytes (0%)Title : Sunny_s speach / Sunny_s speachLanguage : EnglishDefault : NoForced : NoAlternate group : 2Encoded date : UTC 2016-12-31 14:13:21Tagged date : UTC 2016-12-31 14:13:21

Text #6ID : 12Format : Timed TextMuxing mode : sbtlCodec ID : tx3gDuration : 1 h 47 minBit rate mode : VariableBit rate : 64 b/sStream size : 50.7 KiB (0%)Title : Full / FullLanguage : EnglishDefault : NoForced : NoAlternate group : 2Encoded date : UTC 2016-12-31 14:13:21Tagged date : UTC 2016-12-31 14:13:21

Text #7ID : 13Format : Timed TextMuxing mode : sbtlCodec ID : tx3gDuration : 1 h 47 minBit rate mode : VariableBit rate : 68 b/sStream size : 53.9 KiB (0%)Title : SDH / SDHLanguage : EnglishDefault : NoForced : NoAlternate group : 2Encoded date : UTC 2016-12-31 14:13:21Tagged date : UTC 2016-12-31 14:13:21


Трекер:  [ 31-Дек-2016 16:30 ]

  

Скачать .torrent

Размер .torrent файла 18 KB


Размер: 1.8 GB
Хэш (hash) релиза: b52c5c63d2d9c5248f9e95aa88182d1e531a0ce1

Еще никто не оставлял запись к записи скачать торрент [VIDEO] Лемони Сникет: 33 несчастья A Series of Unfortunate Events . Будь первым!

!Обратная связь