Joel Morales | Ted V. Mikels | The Affair

Скачать через торрент [MULT] Полярный экспресс The Polar Express бесплатно русская версия torrent активатор

Статистика раздачи
Размер:  1.61 GB   |    Зарегистрирован:  1 год 6 месяцев   |    .torrent скачан:  22 раза   |   
Раздают:  1  
   
загрузка...
 
Автор Сообщение

Galfimbul

avatar Galfimbul


<span class="post-font-serif1">Полярный экспресс / The Polar Express</span>

<span class="post-font-serif1">Год выпуска: 2004
Страна: США
Жанр: мультфильм, фэнтези, приключения, семейный
Продолжительность: 01:39:56
Перевод №1: русский Профессиональный (полное дублирование) "Мосфильм-Мастер"
Перевод №2: русский Профессиональный (двухголосый, закадровый) "Tycoon"
Перевод №3: русский Профессиональный (многоголосый, закадровый) "Киномания"
Перевод №4: русский Авторский (одноголосый, закадровый) Владимир Королёв
Перевод №5: русский Авторский (одноголосый, закадровый) Евгений Рудой
Перевод №6: украинский Профессиональный (многоголосый, закадровый) "Так треба продакшн" на замовлення ТК "Інтер
Перевод №7: украинский Профессиональный (многоголосый, закадровый) ТК "ICTV"
Оригинальная дорожка: Есть
Cубтитры: Русские (полные), Украинские (полные), English (Full, SDH)</span>
<span class="post-font-serif1">Режиссер: Роберт Земекис / Robert Zemeckis</span>
<span class="post-font-serif1">Роли озвучивали: Том Хэнкс, Майкл Джитер, Нона Гэй, Питер Сколари, Эдди Дизен, Лесли Хартер Земекис, Чарльз Флайшер, Джош Эли, Марк Мендонка, Роландас Хендрикс, Марк Гудман, Джон Скотт, Грегори Гаст, Шон Скотт, Гордон Харт, Брендан Кинг, Крис Коппола, Джулин Рени... и другие .</span>
<span class="post-font-serif1">Описание: Экранизация одноименной детской книги о необыкновенном путешествии маленького мальчика на волшебном поезде «Полярный экспресс» на Северный полюс к Санта-Клаусу в канун Рождества...</span>
<span class="post-font-serif1">Релиз группы </span>
<span class="post-font-serif1">Качество: BDRip / <a href="viewtopic.php?t=4624910" class="postLink">рип с BDRemux 1080p</a>
Формат: MP4
Видео кодек: H.264
Аудио кодек: AAC
Видео: 960x398 AR:2.40 1257 kbps 23.976 fps
Аудио №1: [Russian] 2ch 48 kHz 128 kbps - [Dub] Профессиональный (полное дублирование) "Мосфильм-Мастер"
Аудио №2: [Russian] 2ch 48 kHz 128 kbps - [DVO] Профессиональный (двухголосый, закадровый) "Tycoon"
Аудио №3: [Russian] 2ch 48 kHz 128 kbps - [MVO] Профессиональный (многоголосый, закадровый) "Киномания"
Аудио №4: [Russian] 2ch 48 kHz 128 kbps - [VO] Авторский (одноголосый, закадровый) Владимир Королёв
Аудио №5: [Russian] 2ch 48 kHz 128 kbps - [VO] Авторский (одноголосый, закадровый) Евгений Рудой
Аудио №6: [Ukrainian] 2ch 48 kHz 128 kbps - [MVO] Профессиональный (многоголосый, закадровый) "Так треба продакшн" на замовлення ТК "Інтер"
Аудио №7: [Ukrainian] 1ch 48 kHz 128 kbps - [MVO] Профессиональный (многоголосый, закадровый) ТК "ICTV"
Аудио №8: [English] 2ch 48 kHz 128 kbps - Оригинал</span>
avs [info]: 960x398p 1:1 @ 2997/125 fps (cfr)
x264 [info]: using SAR=1/1
x264 [info]: using cpu capabilities: MMX2 SSE2Fast SSSE3 SSE4.2 AVX FMA3 AVX2 LZCNT BMI2
x264 [info]: profile High, level 4.1

x264 [info]: frame I:949 Avg QP:16.83 size: 40412
x264 [info]: frame P:41193 Avg QP:21.13 size: 11840
x264 [info]: frame B:101631 Avg QP:23.13 size: 4089
x264 [info]: consecutive B-frames: 5.4% 6.7% 15.9% 31.2% 21.0% 17.5% 2.2%
x264 [info]: mb I I16..4: 7.0% 68.2% 24.9%
x264 [info]: mb P I16..4: 2.4% 11.2% 2.1% P16..4: 31.7% 32.9% 9.4% 0.0% 0.0% skip:10.3%
x264 [info]: mb B I16..4: 0.5% 1.6% 0.2% B16..8: 31.4% 18.1% 3.2% direct: 3.8% skip:41.2% L0:42.3% L1:44.8% BI:12.9%
x264 [info]: 8x8 transform intra:71.0% inter:61.4%
x264 [info]: direct mvs spatial:90.5% temporal:9.5%
x264 [info]: coded y,uvDC,uvAC intra: 66.4% 60.3% 30.2% inter: 17.0% 12.0% 4.8%
x264 [info]: i16 v,h,dc,p: 16% 25% 3% 56%
x264 [info]: i8 v,h,dc,ddl,ddr,vr,hd,vl,hu: 7% 9% 7% 9% 13% 12% 15% 11% 16%
x264 [info]: i4 v,h,dc,ddl,ddr,vr,hd,vl,hu: 12% 12% 10% 7% 13% 11% 13% 9% 12%
x264 [info]: i8c dc,h,v,p: 31% 35% 18% 16%
x264 [info]: Weighted P-Frames: Y:12.1% UV:7.4%
x264 [info]: ref P L0: 55.1% 10.6% 13.6% 5.5% 4.4% 3.7% 2.8% 1.8% 2.0% 0.4% 0.0%
x264 [info]: ref B L0: 78.9% 8.2% 4.5% 2.3% 2.2% 2.0% 1.4% 0.4%
x264 [info]: ref B L1: 96.5% 3.5%
x264 [info]: kb/s:1256.23

encoded 143773 frames, 17.29 fps, 1256.23 kb/s
GeneralComplete name : D:\Torrents\The Polar Express.2004.BDRip.x264.960x.rip by Frost O.S.mp4Format : MPEG-4Format profile : Base MediaCodec ID : isom (isom/avc1/iso2)File size : 1.61 GiBDuration : 1 h 39 minOverall bit rate mode : VariableOverall bit rate : 2 313 kb/sMovie name : The Polar Express 2004 BDRip x264 960x rip by Frost O SGenre : AnimationContentType : Short FilmEncoded date : UTC 2016-12-31 13:45:06Tagged date : UTC 2016-12-31 13:50:14Writing application : MkvToMp4 version: 0.224 (x64)Cover : YesComment : rip by Frost O.SLongDescription : Экранизация одноименной детской книги о необыкновенном путешествии маленького мальчика на волшебном поезде «Полярный экспресс» на Северный полюс к Санта-Клаусу в канун Рождества...

VideoID : 1Format : AVCFormat/Info : Advanced Video CodecFormat profile : [email protected] settings, CABAC : YesFormat settings, ReFrames : 9 framesCodec ID : avc1Codec ID/Info : Advanced Video CodingDuration : 1 h 39 minBit rate : 1 257 kb/sMaximum bit rate : 3 313 kb/sWidth : 960 pixelsHeight : 398 pixelsDisplay aspect ratio : 2.40:1Frame rate mode : ConstantFrame rate : 23.976 (24000/1001) FPSOriginal frame rate : 23.976 (23976/1000) FPSColor space : YUVChroma subsampling : 4:2:0Bit depth : 8 bitsScan type : ProgressiveBits/(Pixel*Frame) : 0.137Stream size : 898 MiB (54%)Writing library : x264 core 148 r2705 3f5ed56Encoding settings : cabac=1 / ref=9 / deblock=1:-2:-2 / analyse=0x3:0x113 / me=umh / subme=11 / psy=1 / psy_rd=0.85:0.00 / mixed_ref=1 / me_range=32 / chroma_me=1 / trellis=2 / 8x8dct=1 / cqm=0 / deadzone=21,11 / fast_pskip=0 / chroma_qp_offset=-2 / threads=6 / lookahead_threads=1 / sliced_threads=0 / nr=0 / decimate=0 / interlaced=0 / bluray_compat=0 / constrained_intra=0 / bframes=6 / b_pyramid=2 / b_adapt=2 / b_bias=0 / direct=3 / weightb=1 / open_gop=0 / weightp=2 / keyint=250 / keyint_min=23 / scenecut=40 / intra_refresh=0 / rc=2pass / mbtree=0 / bitrate=1257 / ratetol=1.0 / qcomp=0.65 / qpmin=0 / qpmax=69 / qpstep=4 / cplxblur=20.0 / qblur=0.5 / ip_ratio=1.40 / pb_ratio=1.30 / aq=1:0.90Language : EnglishEncoded date : UTC 2016-12-31 13:45:06Tagged date : UTC 2016-12-31 13:46:55Color range : LimitedColor primaries : BT.709Transfer characteristics : BT.709Matrix coefficients : BT.709

Audio #1ID : 2Format : AACFormat/Info : Advanced Audio CodecFormat profile : LCCodec ID : 40Duration : 1 h 39 minBit rate mode : VariableBit rate : 128 kb/sMaximum bit rate : 135 kb/sChannel(s) : 2 channelsChannel positions : Front: L RSampling rate : 48.0 kHzFrame rate : 46.875 FPS (1024 spf)Compression mode : LossyStream size : 91.5 MiB (6%)Title : Dub_ Mosfilm_Master _BD CEE_ / Dub_ Mosfilm_Master _BD CEE_Language : RussianDefault : YesAlternate group : 1Encoded date : UTC 2016-12-31 13:45:44Tagged date : UTC 2016-12-31 13:46:55

Audio #2ID : 3Format : AACFormat/Info : Advanced Audio CodecFormat profile : LCCodec ID : 40Duration : 1 h 39 minBit rate mode : VariableBit rate : 128 kb/sMaximum bit rate : 135 kb/sChannel(s) : 2 channelsChannel positions : Front: L RSampling rate : 48.0 kHzFrame rate : 46.875 FPS (1024 spf)Compression mode : LossyStream size : 91.5 MiB (6%)Title : DVO_ Tycoon / DVO_ TycoonLanguage : RussianDefault : NoAlternate group : 1Encoded date : UTC 2016-12-31 13:45:58Tagged date : UTC 2016-12-31 13:46:55

Audio #3ID : 4Format : AACFormat/Info : Advanced Audio CodecFormat profile : LCCodec ID : 40Duration : 1 h 39 minBit rate mode : VariableBit rate : 128 kb/sMaximum bit rate : 135 kb/sChannel(s) : 2 channelsChannel positions : Front: L RSampling rate : 48.0 kHzFrame rate : 46.875 FPS (1024 spf)Compression mode : LossyStream size : 91.5 MiB (6%)Title : MVO_ Kinomaniya / MVO_ KinomaniyaLanguage : RussianDefault : NoAlternate group : 1Encoded date : UTC 2016-12-31 13:46:05Tagged date : UTC 2016-12-31 13:46:55

Audio #4ID : 5Format : AACFormat/Info : Advanced Audio CodecFormat profile : LCCodec ID : 40Duration : 1 h 39 minBit rate mode : VariableBit rate : 128 kb/sMaximum bit rate : 135 kb/sChannel(s) : 2 channelsChannel positions : Front: L RSampling rate : 48.0 kHzFrame rate : 46.875 FPS (1024 spf)Compression mode : LossyStream size : 91.5 MiB (6%)Title : VO_ Korolev / VO_ KorolevLanguage : RussianDefault : NoAlternate group : 1Encoded date : UTC 2016-12-31 13:46:13Tagged date : UTC 2016-12-31 13:46:55

Audio #5ID : 6Format : AACFormat/Info : Advanced Audio CodecFormat profile : LCCodec ID : 40Duration : 1 h 39 minBit rate mode : VariableBit rate : 128 kb/sMaximum bit rate : 135 kb/sChannel(s) : 2 channelsChannel positions : Front: L RSampling rate : 48.0 kHzFrame rate : 46.875 FPS (1024 spf)Compression mode : LossyStream size : 91.5 MiB (6%)Title : VO_ Rudoi / VO_ RudoiLanguage : RussianDefault : NoAlternate group : 1Encoded date : UTC 2016-12-31 13:46:20Tagged date : UTC 2016-12-31 13:46:55

Audio #6ID : 7Format : AACFormat/Info : Advanced Audio CodecFormat profile : LCCodec ID : 40Duration : 1 h 39 minBit rate mode : VariableBit rate : 128 kb/sMaximum bit rate : 135 kb/sChannel(s) : 2 channelsChannel positions : Front: L RSampling rate : 48.0 kHzFrame rate : 46.875 FPS (1024 spf)Compression mode : LossyStream size : 91.5 MiB (6%)Title : MVO_ _Tak treba prodakshn_ na zamovlennya TK Inter / MVO_ _Tak treba prodakshn_ na zamovlennya TK ILanguage : UkrainianDefault : NoAlternate group : 1Encoded date : UTC 2016-12-31 13:46:27Tagged date : UTC 2016-12-31 13:46:55

Audio #7ID : 8Format : AACFormat/Info : Advanced Audio CodecFormat profile : LCCodec ID : 40Duration : 1 h 39 minBit rate mode : VariableBit rate : 129 kb/sChannel(s) : 1 channelChannel positions : Front: CSampling rate : 48.0 kHzFrame rate : 46.875 FPS (1024 spf)Compression mode : LossyStream size : 91.5 MiB (6%)Title : MVO_ TK _ICTV_ / MVO_ TK _ICTV_Language : UkrainianDefault : NoAlternate group : 1Encoded date : UTC 2016-12-31 13:46:35Tagged date : UTC 2016-12-31 13:46:55

Audio #8ID : 9Format : AACFormat/Info : Advanced Audio CodecFormat profile : LCCodec ID : 40Duration : 1 h 39 minBit rate mode : VariableBit rate : 128 kb/sMaximum bit rate : 135 kb/sChannel(s) : 2 channelsChannel positions : Front: L RSampling rate : 48.0 kHzFrame rate : 46.875 FPS (1024 spf)Compression mode : LossyStream size : 91.5 MiB (6%)Title : Original / OriginalLanguage : EnglishDefault : NoAlternate group : 1Encoded date : UTC 2016-12-31 13:46:44Tagged date : UTC 2016-12-31 13:46:55

Text #1ID : 10Format : Timed TextMuxing mode : sbtlCodec ID : tx3gDuration : 1 h 39 minBit rate mode : VariableBit rate : 54 b/sStream size : 39.2 KiB (0%)Title : Full / FullLanguage : RussianDefault : YesForced : NoAlternate group : 2Encoded date : UTC 2016-12-31 13:46:55Tagged date : UTC 2016-12-31 13:46:55

Text #2ID : 11Format : Timed TextMuxing mode : sbtlCodec ID : tx3gDuration : 1 h 39 minBit rate mode : VariableBit rate : 56 b/sStream size : 40.5 KiB (0%)Title : Full / FullLanguage : UkrainianDefault : NoForced : NoAlternate group : 2Encoded date : UTC 2016-12-31 13:46:55Tagged date : UTC 2016-12-31 13:46:55

Text #3ID : 12Format : Timed TextMuxing mode : sbtlCodec ID : tx3gDuration : 1 h 31 minBit rate mode : VariableBit rate : 46 b/sStream size : 30.7 KiB (0%)Title : Full / FullLanguage : EnglishDefault : NoForced : NoAlternate group : 2Encoded date : UTC 2016-12-31 13:46:55Tagged date : UTC 2016-12-31 13:46:55

Text #4ID : 13Format : Timed TextMuxing mode : sbtlCodec ID : tx3gDuration : 1 h 39 minBit rate mode : VariableBit rate : 47 b/sStream size : 34.0 KiB (0%)Title : SDH / SDHLanguage : EnglishDefault : NoForced : NoAlternate group : 2Encoded date : UTC 2016-12-31 13:46:55Tagged date : UTC 2016-12-31 13:46:55


Трекер:  [ 31-Дек-2016 16:00 ]

  

Скачать .torrent

Размер .torrent файла 16 KB


Размер: 1.61 GB
Хэш (hash) релиза: 16a83f3fac56b311a00e94c57ce9ca3cf7a75175

Торренты, похожие на [MULT] Полярный экспресс The Polar Express скачать торрент

Форум Название Автор Размер S L Добавлен
Видео (Фильмы/Клипы) ·· [MULT] Полярный экспресс / The Polar Express (Роберт Земекис / Robert Zemeckis) [2004, мультфильм, фэнтези, приключения, семейный, BDRip] [MP4, 480x] Galfimbul 443755407423 MB 0 0 1483194125

17:22

31-Дек-16

Еще никто не оставлял запись к записи скачать торрент [MULT] Полярный экспресс The Polar Express . Будь первым!

!Обратная связь