Визитёры / V | Tag der Frösche Tell It to the Frogs | Orange Live Action Subtitle Indonesia

Скачать через торрент [MULT] Полярный экспресс The Polar Express бесплатно русская версия torrent активатор

Статистика раздачи
Размер:  423 MB   |    Зарегистрирован:  1 год 6 месяцев   |    .torrent скачан:  18 раз   |   
Раздают:  1  
   
загрузка...
 
Автор Сообщение

Galfimbul

avatar Galfimbul


<span class="post-font-serif1">Полярный экспресс / The Polar Express</span>

<span class="post-font-serif1">Год выпуска: 2004
Страна: США
Жанр: мультфильм, фэнтези, приключения, семейный
Продолжительность: 01:39:56
Перевод: русский Профессиональный (полное дублирование) "Мосфильм-Мастер"
Cубтитры: нет</span>
<span class="post-font-serif1">Режиссер: Роберт Земекис / Robert Zemeckis</span>
<span class="post-font-serif1">Роли озвучивали: Том Хэнкс, Майкл Джитер, Нона Гэй, Питер Сколари, Эдди Дизен, Лесли Хартер Земекис, Чарльз Флайшер, Джош Эли, Марк Мендонка, Роландас Хендрикс, Марк Гудман, Джон Скотт, Грегори Гаст, Шон Скотт, Гордон Харт, Брендан Кинг, Крис Коппола, Джулин Рени... и другие .</span>
<span class="post-font-serif1">Описание: Экранизация одноименной детской книги о необыкновенном путешествии маленького мальчика на волшебном поезде «Полярный экспресс» на Северный полюс к Санта-Клаусу в канун Рождества...</span>
<span class="post-font-serif1">Релиз группы </span>
<span class="post-font-serif1">Качество: BDRip / <a href="viewtopic.php?t=4624910" class="postLink">рип с BDRemux 1080p</a>
Формат: MP4
Видео кодек: XviD
Аудио кодек: AAC
Видео: 480x200 AR:2.40 456 kbps 23.976 fps
Аудио : [Russian] 2ch 48 kHz 128 kbps - [Dub] Профессиональный (полное дублирование) "Мосфильм-Мастер"</span>
GeneralComplete name : D:\Torrents\The Polar Express.2004.BDRip.XviD.480x.rip by Frost O.S.mp4Format : MPEG-4Format profile : Base MediaCodec ID : isom (isom/iso2)File size : 423 MiBDuration : 1 h 39 minOverall bit rate mode : VariableOverall bit rate : 592 kb/sMovie name : The Polar Express 2004 BDRip XviD 480x rip by Frost O SGenre : AnimationContentType : Short FilmEncoded date : UTC 2016-12-31 13:55:49Tagged date : UTC 2016-12-31 13:57:43Writing application : MkvToMp4 version: 0.224 (x64)Cover : YesComment : rip by Frost O.SLongDescription : Экранизация одноименной детской книги о необыкновенном путешествии маленького мальчика на волшебном поезде «Полярный экспресс» на Северный полюс к Санта-Клаусу в канун Рождества...

VideoID : 1Format : MPEG-4 VisualFormat profile : Advanced [email protected] settings, BVOP : YesFormat settings, QPel : NoFormat settings, GMC : No warppointsFormat settings, Matrix : CustomCodec ID : 20Duration : 1 h 39 minBit rate mode : VariableBit rate : 456 kb/sMaximum bit rate : 1 844 kb/sWidth : 480 pixelsHeight : 200 pixelsDisplay aspect ratio : 2.40:1Frame rate mode : ConstantFrame rate : 23.976 (24000/1001) FPSOriginal frame rate : 23.976 (23976/1000) FPSColor space : YUVChroma subsampling : 4:2:0Bit depth : 8 bitsScan type : ProgressiveCompression mode : LossyBits/(Pixel*Frame) : 0.198Stream size : 326 MiB (77%)Title : avi_GPAC0.5.2_DEV_rev248_g39d5978_masterWriting library : XviD 1.2.1 (UTC 2008-12-04)Language : EnglishTagged date : UTC 2016-12-31 13:56:06

AudioID : 2Format : AACFormat/Info : Advanced Audio CodecFormat profile : LCCodec ID : 40Duration : 1 h 39 minBit rate mode : VariableBit rate : 128 kb/sMaximum bit rate : 135 kb/sChannel(s) : 2 channelsChannel positions : Front: L RSampling rate : 48.0 kHzFrame rate : 46.875 FPS (1024 spf)Compression mode : LossyStream size : 91.5 MiB (22%)Title : Dub_ Mosfilm_Master _BD CEE_ / Dub_ Mosfilm_Master _BD CEE_Language : RussianDefault : YesAlternate group : 1Encoded date : UTC 2016-12-31 13:56:03Tagged date : UTC 2016-12-31 13:56:06


Трекер:  [ 31-Дек-2016 16:00 ]

  

Скачать .torrent

Размер .torrent файла 17 KB


Размер: 423 MB
Хэш (hash) релиза: eb6cb26a35d407fa129de7c5b3baebbc8a2f38d1

Торренты, похожие на [MULT] Полярный экспресс The Polar Express скачать торрент

Форум Название Автор Размер S L Добавлен
Видео (Фильмы/Клипы) ·· [MULT] Полярный экспресс / The Polar Express (Роберт Земекис / Robert Zemeckis) [2004, мультфильм, фэнтези, приключения, семейный, BDRip] [MP4, 960x] Galfimbul 17340418991.61 GB 0 0 1483194135

17:22

31-Дек-16

Еще никто не оставлял запись к записи скачать торрент [MULT] Полярный экспресс The Polar Express . Будь первым!

!Обратная связь