Steins;Gate 0 Episode 9 Subtitle Indonesia | Ein echter Wiener geht nicht unter | PDF DOWNLOAD Expert Resumes for People Returning to Work FOR IPAD

Скачать через торрент [VIDEO] Выбор The Choice бесплатно русская версия torrent активатор

Статистика раздачи
Размер:  2.46 GB   |    Зарегистрирован:  1 год 6 месяцев   |    .torrent скачан:  18 раз   |   
Раздают:  1  
   
загрузка...
 
Автор Сообщение

Galfimbul

avatar Galfimbul


Выбор / The Choice
«Let your heart decide»
Премьера: 2016
Оригинальное название: The Choice
Страна: США
Жанр: драма, мелодрама
Возраст: 16+

Режиссер: Росс Кац / Росс Кац

В ролях: Александра Даддарио, Тереза Палмер, Мэгги Грэйс, Бенджамин Уокер, Том Уэллинг, Том Уилкинсон, Брэд Джеймс, Анна Энгер, Бретт Райс, Вилбур Фицджералд

Описание: Холостяк Тревис Паркер считает, что семья, серьезные отношения, любовь, ответственность и прочие дела не для него. Он трудится на прекрасной работе, у него есть хорошие, отзывчивые и верные друзья. У него есть хобби - это охота и рыбалка, также он увлекается экстремальными видами спорта. И все это никак не связано с серьезными отношениями и с прекрасным полом. Но в скором времени в соседнем доме поселяется скромная, необщительная девушка Габи. И в этот момент взгляд на жизнь Тревиса полностью меняется...

Продолжительность: 01:51:07
Перевод: Дублированный [Лицензия]
Оригинальная дорожка: есть

Автор рипа:

Качество видео: BDRip Исходник: Blu-Ray Remux (1080p) Формат: mp4
Видео кодек: MPEG-4 AVC Аудио кодек: AAC
Видео: 1280x528 (2.40:1) at 23.976 fps, AVC at 2 906 kbps avg, 0.179 bit/pixel
Аудио №1 Rus: 48.0 KHz, AAC, 2 ch, 128.0 Kbps
Аудио №2 Eng: 48.0 KHz, AAC, 2 ch, 128.0 Kbps
Субтитры: английские (полные)
Навигация по главам: есть
Размер: 2.46 GiB
avs [info]: 1280x528p 1:1 @ 24000/1001 fps (cfr)
x264 [info]: using SAR=1/1
x264 [info]: using cpu capabilities: MMX2 SSE2Fast SSSE3 Cache64
x264 [info]: profile High, level 4.1
x264 [info]: frame I:1591 Avg QP:15.17 size:101035
x264 [info]: frame P:73506 Avg QP:18.07 size: 24025
x264 [info]: frame B:84744 Avg QP:20.18 size: 5846
x264 [info]: consecutive B-frames: 16.9% 36.9% 13.2% 15.4% 13.8% 3.8%
x264 [info]: mb I I16..4: 11.3% 68.2% 20.4%
x264 [info]: mb P I16..4: 0.8% 2.9% 0.8% P16..4: 40.7% 22.7% 16.7% 0.0% 0.0% skip:15.4%
x264 [info]: mb B I16..4: 0.0% 0.2% 0.1% B16..8: 42.3% 5.6% 1.3% direct: 2.5% skip:48.0% L0:40.4% L1:50.1% BI: 9.5%
x264 [info]: 8x8 transform intra:66.1% inter:72.4%
x264 [info]: coded y,uvDC,uvAC intra: 77.1% 88.6% 74.0% inter: 24.6% 31.8% 7.6%
x264 [info]: i16 v,h,dc,p: 41% 20% 5% 34%
x264 [info]: i8 v,h,dc,ddl,ddr,vr,hd,vl,hu: 17% 15% 22% 5% 8% 9% 8% 8% 8%
x264 [info]: i4 v,h,dc,ddl,ddr,vr,hd,vl,hu: 19% 18% 13% 6% 10% 11% 9% 7% 7%
x264 [info]: i8c dc,h,v,p: 51% 19% 19% 12%
x264 [info]: Weighted P-Frames: Y:3.1% UV:1.4%
x264 [info]: ref P L0: 49.7% 10.5% 17.0% 6.2% 5.2% 3.7% 3.6% 1.7% 1.8% 0.7% 0.0%
x264 [info]: ref B L0: 71.9% 14.0% 5.9% 3.0% 2.0% 1.8% 1.2% 0.3%
x264 [info]: ref B L1: 94.9% 5.1%
x264 [info]: kb/s:2906.53
encoded 159841 frames, 2.54 fps, 2906.53 kb/s
GeneralFormat : MPEG-4Format profile : Base MediaCodec ID : isom (isom)File size : 2.46 GiBDuration : 1 h 51 minOverall bit rate mode : VariableOverall bit rate : 3 175 kb/sMovie name : ВыборPerformer : Росс КацDirector : Росс КацActor : Александра Даддарио / Тереза Палмер / Мэгги Грэйс / Бенджамин Уокер / Том Уэллинг / Том Уилкинсон / Брэд Джеймс / Анна Энгер / Бретт Райс / Вилбур ФицджералдScreenplay by : Брайан Сайп / Николас СпарксProducer : Тереза Парк / Питер Сафран / Николас СпарксGenre : Drama, RomanceContentType : Short FilmRecorded date : 2016Encoded date : UTC 2016-12-30 13:58:29Tagged date : UTC 2016-12-30 14:26:07Cover : YesContentRating : mpaa|PG-13|300|LongDescription : Любовь? Серьезные отношения? Ответственность? Семья? Закоренелый холостяк Тревис Паркер считает, что все это не для него. У него есть отличная работа и верные друзья. Он увлекается охотой, рыбалкой, занимается экстремальными видами спорта — и избегает серьезных отношений. Но не родился еще на свет человек, которому удалось бы уйти от настоящей любви… Когда в доме по соседству поселяется тихая, замкнутая Габи, жизнь Тревиса меняется.HDVideo : Yes

VideoID : 1Format : AVCFormat/Info : Advanced Video CodecFormat profile : [email protected] settings, CABAC : YesFormat settings, ReFrames : 9 framesCodec ID : avc1Codec ID/Info : Advanced Video CodingDuration : 1 h 51 minBit rate : 2 906 kb/sMaximum bit rate : 21.7 Mb/sWidth : 1 280 pixelsHeight : 528 pixelsDisplay aspect ratio : 2.40:1Frame rate mode : ConstantFrame rate : 23.976 (24000/1001) FPSColor space : YUVChroma subsampling : 4:2:0Bit depth : 8 bitsScan type : ProgressiveBits/(Pixel*Frame) : 0.179Stream size : 2.26 GiB (92%)Writing library : x264 core 148 r2638 7599210Encoding settings : cabac=1 / ref=9 / deblock=1:-2:-1 / analyse=0x3:0x113 / me=umh / subme=7 / psy=1 / psy_rd=1.00:0.15 / mixed_ref=1 / me_range=32 / chroma_me=1 / trellis=1 / 8x8dct=1 / cqm=0 / deadzone=21,11 / fast_pskip=1 / chroma_qp_offset=-3 / threads=3 / lookahead_threads=1 / sliced_threads=0 / nr=0 / decimate=1 / interlaced=0 / bluray_compat=0 / constrained_intra=0 / bframes=5 / b_pyramid=2 / b_adapt=1 / b_bias=0 / direct=1 / weightb=1 / open_gop=0 / weightp=2 / keyint=240 / keyint_min=23 / scenecut=40 / intra_refresh=0 / rc_lookahead=60 / rc=crf / mbtree=1 / crf=18.0 / qcomp=0.60 / qpmin=0 / qpmax=69 / qpstep=4 / vbv_maxrate=62500 / vbv_bufsize=78125 / crf_max=0.0 / nal_hrd=none / filler=0 / ip_ratio=1.40 / aq=1:1.00Encoded date : UTC 2016-12-30 13:14:52Tagged date : UTC 2016-12-30 13:59:20

Audio #1ID : 2Format : AACFormat/Info : Advanced Audio CodecFormat profile : LCCodec ID : 40Duration : 1 h 51 minBit rate mode : VariableBit rate : 128 kb/sMaximum bit rate : 135 kb/sChannel(s) : 2 channelsChannel positions : Front: L RSampling rate : 48.0 kHzFrame rate : 46.875 FPS (1024 spf)Compression mode : LossyStream size : 102 MiB (4%)Title : Dub [license]Language : RussianEncoded date : UTC 2016-12-30 13:19:26Tagged date : UTC 2016-12-30 13:59:20

Audio #2ID : 3Format : AACFormat/Info : Advanced Audio CodecFormat profile : LCCodec ID : 40Duration : 1 h 51 minBit rate mode : VariableBit rate : 128 kb/sMaximum bit rate : 134 kb/sChannel(s) : 2 channelsChannel positions : Front: L RSampling rate : 48.0 kHzFrame rate : 46.875 FPS (1024 spf)Compression mode : LossyStream size : 102 MiB (4%)Title : OriginalLanguage : EnglishEncoded date : UTC 2016-12-30 13:34:16Tagged date : UTC 2016-12-30 13:59:20

TextID : 4Format : Timed TextCodec ID : tx3gDuration : 1 h 50 minBit rate mode : VariableBit rate : 71 b/sStream size : 56.9 KiB (0%)Title : FullLanguage : EnglishForced : NoEncoded date : UTC 2016-12-30 13:59:20Tagged date : UTC 2016-12-30 13:59:20

Menu00:00:00.000 : Chapter 0100:04:37.110 : Chapter 0200:12:09.353 : Chapter 0300:20:26.975 : Chapter 0400:27:49.042 : Chapter 0500:34:24.395 : Chapter 0600:40:54.076 : Chapter 0700:47:25.050 : Chapter 0800:54:27.639 : Chapter 0900:58:57.992 : Chapter 1001:06:32.238 : Chapter 1101:14:04.106 : Chapter 1201:20:10.013 : Chapter 1301:28:19.043 : Chapter 1401:35:19.547 : Chapter 1501:40:33.068 : Chapter 16
<a href="tracker.php?rid=39840292" class="postLink"> </a>

Трекер:  [ 30-Дек-2016 19:00 ]

  

Скачать .torrent

Размер .torrent файла 12 KB


Размер: 2.46 GB
Хэш (hash) релиза: 00f8fbe7bfdf66ca12553f21cf5b963a0a906a3e

Еще никто не оставлял запись к записи скачать торрент [VIDEO] Выбор The Choice . Будь первым!

!Обратная связь