Season 1 Episode 1 Daybreak | Running Man Episode 361 | Wizard Barristers: Benmashi Cecil

Скачать через торрент [SERIAL] Реальные пацаны Сезон: 1-3 бесплатно русская версия torrent активатор

Статистика раздачи
Размер:  13.67 GB   |    Зарегистрирован:  1 год 6 месяцев   |    .torrent скачан:  34 раза   |   
Раздают:  1  
   
загрузка...
 
Автор Сообщение

Galfimbul

avatar Galfimbul



Реальные пацаны
<span class="post-font-sans3">Сезон: 1-3 / Серии: 1-70</span>
Год выпуска: 2010 - 2011
Страна: Россия
Жанр: Комедия
Продолжительность: 70 х ~ 00:22:00
Перевод: Не требуется
Cубтитры: нет

Режиссер: Жанна Кадникова

В ролях: Николай Наумов, Зоя Бербер, Антон Богданов, Владимир Селиванов, Станислав Тляшев, Мария Скорницкая, Валентина Мазунина, Марина Федункив, Армен Бежанян, Игорь Ознобихин, Алексей Базанов, Анастасия Плоскова, Олег Верещагин, Сергей Ершов, Татьяна Ронзина, Любовь Рудометова, Юлия Гришнина, Михаил Чуднов, Дмитрий Белоцерковский, Дмитрий Наумов (II), Юрий Богомолов, Василий Бичев, Анна Семенович, Аскольд Запашный, Эдгард Запашный

Описание: Обычный, рядовой российский парень Коля не может определиться между жизнью «на районе» и миром пермской элиты общества. На протяжении всего сериала, его ждут увлекательные и смешные истории.Он встал на путь исправления и старается жить честно. Даже устроился на работу продавцом в салон связи, где тайно презирает напарника за обтягивающие маечки и нетрадиционный лоск. Помимо духовного роста, жизнь Коляна осложняют любовные терзания. Он встречается с девушкой, которая работает гигантской плюшевой таблеткой возле районной аптеки. А мечтает о девушке, которая учится в университете и летает на шопинг в Лондон. А еще жизнь Коляна осложняют друзья. Они не хотят, чтобы Колян исправлялся, они хотят все вместе кататься по району на тачках, лазить в общежитие к будущим медсестрам и отжимать мелочь у школьников.

Качество: DVDRip | <span class="post-font-serif1">7 х DVD9</span>
Формат: MP4

Видео: AVC (x264), 480x360 (1.33:1), ~1080 kbps, 25.000 fps, 0.250 bpp
Аудио: Русский, AСC, 48 KHz, 2 ch, 128 kbps

[b]Релиз:

</span></a></span>
[spoiler="x264 [info]"]
crop(0, 0, -0, -0)
raw [info]: 480x360
x264 [info]: using SAR=1/1
x264 [info]: profile High, level 4.0
x264 [info]: frame I:160 Avg QP:16.58 size: 27319
x264 [info]: frame P:8535 Avg QP:20.41 size: 10808
x264 [info]: frame B:23307 Avg QP:22.95 size: 3253
x264 [info]: consecutive B-frames: 5.0% 6.1% 11.0% 25.6% 14.7% 32.9% 2.8% 0.4% 0.4% 0.2% 0.8%
x264 [info]: mb I I16..4: 8.3% 61.9% 29.8%
x264 [info]: mb P I16..4: 0.8% 12.1% 2.7% P16..4: 33.0% 31.5% 17.6% 0.0% 0.0% skip: 2.3%
x264 [info]: mb B I16..4: 0.1% 1.0% 0.2% B16..8: 38.5% 14.8% 4.6% direct: 8.3% skip:32.6% L0:32.5% L1:35.1% BI:32.4%
x264 [info]: 8x8 transform intra:76.2% inter:58.9%
x264 [info]: direct mvs spatial:98.9% temporal:1.1%
x264 [info]: coded y,uvDC,uvAC intra: 86.3% 74.6% 44.6% inter: 32.2% 19.7% 3.1%
x264 [info]: i16 v,h,dc,p: 48% 12% 8% 31%
x264 [info]: i8 v,h,dc,ddl,ddr,vr,hd,vl,hu: 21% 10% 9% 7% 10% 11% 10% 10% 12%
x264 [info]: i4 v,h,dc,ddl,ddr,vr,hd,vl,hu: 21% 10% 5% 7% 12% 13% 12% 10% 11%
x264 [info]: i8c dc,h,v,p: 40% 24% 24% 13%
x264 [info]: ref P L0: 73.4% 12.7% 4.9% 3.1% 2.0% 2.0% 1.7% 0.1%
x264 [info]: ref B L0: 88.9% 6.6% 2.2% 1.0% 0.7% 0.4% 0.2%
x264 [info]: ref B L1: 97.8% 2.2%
x264 [info]: kb/s:1077.71
<pre>
ОбщееУникальный идентификатор : 229744637676232532313739995388228593230 (0xACD7352D8D176D3DA4A7B52CA08EE64E)Полное имя : ...\[email protected]Формат : MatroskaВерсия формата : Version 4 / Version 2Размер файла : 205 МбайтПродолжительность : 23 м. 38 с.Общий поток : 1210 Кбит/секНазвание фильма : Реальные пацаны \ Сезон 1 \ 2010 [email protected]Дата кодирования : UTC 2016-12-24 08:57:24Программа кодирования : mkvmerge v9.6.0 ('Slave To Your Mind') 32bitБиблиотека кодирования : libebml v1.3.4 + libmatroska v1.4.5Attachments : 500.jpg

ВидеоИдентификатор : 1Формат : AVCФормат/Информация : Advanced Video CodecПрофиль формата : [email protected]Параметр CABAC формата : ДаПараметр ReFrames формата : 8 кадровИдентификатор кодека : V_MPEG4/ISO/AVCПродолжительность : 23 м. 38 с.Битрейт : 1079 Кбит/секШирина : 480 пикселейВысота : 360 пикселейСоотношение сторон : 4:3Режим частоты кадров : ПостоянныйЧастота кадров : 25,000 кадров/секЦветовое пространство : YUVСубдискретизация насыщенности : 4:2:0Битовая глубина : 8 битТип развёртки : ПрогрессивнаяБит/(Пиксели*Кадры) : 0.250Размер потока : 183 Мбайт (89%)Заголовок : Rip by nnlabetikБиблиотека кодирования : x264 core 148 r2744 b97ae06Настройки программы : cabac=1 / ref=8 / deblock=1:-2:-1 / analyse=0x3:0x113 / me=umh / subme=10 / psy=1 / psy_rd=1.00:0.00 / mixed_ref=1 / me_range=32 / chroma_me=1 / trellis=2 / 8x8dct=1 / cqm=0 / deadzone=21,11 / fast_pskip=0 / chroma_qp_offset=-2 / threads=4 / lookahead_threads=1 / sliced_threads=0 / nr=0 / decimate=1 / interlaced=0 / bluray_compat=0 / constrained_intra=0 / bframes=10 / b_pyramid=2 / b_adapt=2 / b_bias=0 / direct=3 / weightb=1 / open_gop=0 / weightp=0 / keyint=250 / keyint_min=25 / scenecut=40 / intra_refresh=0 / rc_lookahead=50 / rc=2pass / mbtree=0 / bitrate=1079 / ratetol=1.0 / qcomp=0.60 / qpmin=0 / qpmax=69 / qpstep=4 / cplxblur=20.0 / qblur=0.5 / vbv_maxrate=20000 / vbv_bufsize=25000 / nal_hrd=none / filler=0 / ip_ratio=1.40 / pb_ratio=1.30 / aq=1:1.00Язык : RussianDefault : ДаForced : НетЦветовой диапазон : LimitedОсновные цвета : BT.709Характеристики трансфера : BT.709Коэффициенты матрицы : BT.709

АудиоИдентификатор : 2Формат : AACФормат/Информация : Advanced Audio CodecПрофиль формата : LCИдентификатор кодека : A_AACПродолжительность : 23 м. 37 с.Битрейт : 128 Кбит/секКаналы : 2 каналаРасположение каналов : Front: L RЧастота : 48,0 КГцЧастота кадров : 46,875 кадров/сек (1024 spf)Метод сжатия : С потерямиРазмер потока : 21,7 Мбайт (11%)Язык : RussianDefault : ДаForced : Нет
</pre>[/spoiler]

Трекер:  [ 29-Дек-2016 20:30 ]

  

Скачать .torrent

Размер .torrent файла 39 KB


Размер: 13.67 GB
Хэш (hash) релиза: b7cb3d275b462ca8c87acfeca20a016851cc10c3

Еще никто не оставлял запись к записи скачать торрент [SERIAL] Реальные пацаны Сезон: 1-3 . Будь первым!

!Обратная связь