Shirobako | Pro Android Graphics | Скачать и Смотреть

Скачать через торрент [VIDEO] Кукла The Boy бесплатно русская версия torrent активатор

Статистика раздачи
Размер:  1.9 GB   |    Зарегистрирован:  1 год 6 месяцев   |    .torrent скачан:  20 раз   |   
Раздают:  1  
   
загрузка...
 
Автор Сообщение

Galfimbul

avatar Galfimbul


Кукла / The Boy
«Каждый ребенок должен быть любим»
Премьера: 2016
Оригинальное название: The Boy
Страна: Канада, США
Жанр: ужасы, триллер, детектив
Возраст: 16+

Режиссер: Уильям Брент Белл / William Brent Bell

В ролях: Лорен Коэн, Руперт Эванс, Джеймс Расселл, Джим Нортон (I), Диана Хардкэсл, Бен Робсон, Джетт Клине, Стефани Николь Лемелин

Описание: Благополучная английская семья нанимает для своего сына американскую няню. Приехав на новое место работы, няня обнаруживает, что её подопечный вовсе не настоящий мальчик, а кукла в человеческий рост, с которой обращаются, как с живым человеком. Но тревожные события, происходящие после того, как няня нарушает установленные строгие правила, заставляют её поверить в то, что кукла действительно может быть живой.

Продолжительность: 01:37:47
Перевод: Дублированный [iTunes]
Оригинальная дорожка: есть

Автор рипа:

Качество видео: BDRip Исходник: Blu-Ray Remux (1080p) Формат: mp4
Видео кодек: MPEG-4 AVC Аудио кодек: AAC
Видео: 1280x534 (2.40:1) at 23.976 fps, AVC at 2 510 kbps avg, 0.153 bit/pixel
Аудио №1 Rus: 48.0 KHz, AAC, 2 ch, 128.0 Kbps
Аудио №2 Eng: 48.0 KHz, AAC, 2 ch, 128.0 Kbps
Субтитры: английские (полные)
Навигация по главам: есть
Размер: 1.90 GiB
avs [info]: 1280x534p 1:1 @ 24000/1001 fps (cfr)
x264 [info]: using SAR=1/1
x264 [info]: using cpu capabilities: MMX2 SSE2Fast SSSE3 Cache64
x264 [info]: profile High, level 4.1
x264 [info]: frame I:1729 Avg QP:15.34 size: 72513
x264 [info]: frame P:75455 Avg QP:18.36 size: 17959
x264 [info]: frame B:63504 Avg QP:20.47 size: 5683
x264 [info]: consecutive B-frames: 28.3% 34.4% 9.7% 12.8% 14.9%
x264 [info]: mb I I16..4: 11.8% 69.6% 18.6%
x264 [info]: mb P I16..4: 0.6% 2.9% 0.5% P16..4: 42.0% 19.9% 16.0% 0.0% 0.0% skip:18.2%
x264 [info]: mb B I16..4: 0.0% 0.2% 0.0% B16..8: 45.3% 5.3% 1.1% direct: 1.7% skip:46.4% L0:42.2% L1:51.2% BI: 6.5%
x264 [info]: 8x8 transform intra:72.2% inter:73.8%
x264 [info]: coded y,uvDC,uvAC intra: 77.4% 76.5% 51.2% inter: 25.4% 20.8% 1.7%
x264 [info]: i16 v,h,dc,p: 40% 14% 11% 35%
x264 [info]: i8 v,h,dc,ddl,ddr,vr,hd,vl,hu: 21% 10% 30% 5% 7% 8% 6% 7% 6%
x264 [info]: i4 v,h,dc,ddl,ddr,vr,hd,vl,hu: 29% 13% 16% 6% 9% 9% 7% 6% 5%
x264 [info]: i8c dc,h,v,p: 57% 16% 20% 7%
x264 [info]: Weighted P-Frames: Y:3.3% UV:1.1%
x264 [info]: ref P L0: 51.1% 8.7% 17.1% 6.6% 5.1% 3.8% 3.4% 1.7% 1.6% 0.8% 0.0%
x264 [info]: ref B L0: 70.2% 14.1% 6.6% 3.1% 2.3% 2.0% 1.4% 0.2%
x264 [info]: ref B L1: 94.3% 5.7%
x264 [info]: kb/s:2510.45
encoded 140688 frames, 2.75 fps, 2510.45 kb/s
GeneralComplete name : D:\Torrents\Download\Kukla_2016_KinoGadget.mp4Format : MPEG-4Format profile : Base MediaCodec ID : isom (isom)File size : 1.90 GiBDuration : 1 h 37 minOverall bit rate mode : VariableOverall bit rate : 2 778 kb/sMovie name : Кукла | KinoGadgetPerformer : Уильям Брент БеллDirector : Уильям Брент БеллActor : Лорен Коэн / Руперт Эванс / Джеймс Расселл / Джим Нортон (I) / Диана Хардкэсл / Бен Робсон / Джетт Клине / Стефани Николь ЛемелинScreenplay by : Стэйси МениаProducer : Мэтт Беренсон / Рой Ли / Гари ЛучезиGenre : Horror, Mystery, ThrillerContentType : Short FilmRecorded date : 2016Encoded date : UTC 2016-12-29 15:17:10Tagged date : UTC 2016-12-29 15:54:11Cover : YesContentRating : mpaa|PG-13|300|LongDescription : Благополучная английская семья нанимает для своего сына американскую няню. Приехав на новое место работы, няня обнаруживает, что её подопечный вовсе не настоящий мальчик, а кукла в человеческий рост, с которой обращаются, как с живым человеком. Но тревожные события, происходящие после того, как няня нарушает установленные строгие правила, заставляют её поверить в то, что кукла действительно может быть живой.HDVideo : Yes

VideoID : 1Format : AVCFormat/Info : Advanced Video CodecFormat profile : [email protected] settings, CABAC : YesFormat settings, ReFrames : 9 framesCodec ID : avc1Codec ID/Info : Advanced Video CodingDuration : 1 h 37 minBit rate : 2 510 kb/sMaximum bit rate : 9 649 kb/sWidth : 1 280 pixelsHeight : 534 pixelsDisplay aspect ratio : 2.40:1Frame rate mode : ConstantFrame rate : 23.976 (24000/1001) FPSColor space : YUVChroma subsampling : 4:2:0Bit depth : 8 bitsScan type : ProgressiveBits/(Pixel*Frame) : 0.153Stream size : 1.71 GiB (90%)Writing library : x264 core 148 r2638 7599210Encoding settings : cabac=1 / ref=9 / deblock=1:-2:-1 / analyse=0x3:0x113 / me=umh / subme=7 / psy=1 / psy_rd=1.00:0.15 / mixed_ref=1 / me_range=32 / chroma_me=1 / trellis=1 / 8x8dct=1 / cqm=0 / deadzone=21,11 / fast_pskip=1 / chroma_qp_offset=-3 / threads=3 / lookahead_threads=1 / sliced_threads=0 / nr=0 / decimate=1 / interlaced=0 / bluray_compat=0 / constrained_intra=0 / bframes=4 / b_pyramid=2 / b_adapt=1 / b_bias=0 / direct=1 / weightb=1 / open_gop=0 / weightp=2 / keyint=240 / keyint_min=23 / scenecut=40 / intra_refresh=0 / rc_lookahead=60 / rc=crf / mbtree=1 / crf=18.5 / qcomp=0.60 / qpmin=0 / qpmax=69 / qpstep=4 / vbv_maxrate=62500 / vbv_bufsize=78125 / crf_max=0.0 / nal_hrd=none / filler=0 / ip_ratio=1.40 / aq=1:1.00Encoded date : UTC 2016-12-29 08:38:27Tagged date : UTC 2016-12-29 15:18:14

Audio #1ID : 2Format : AACFormat/Info : Advanced Audio CodecFormat profile : LCCodec ID : 40Duration : 1 h 37 minBit rate mode : VariableBit rate : 128 kb/sMaximum bit rate : 135 kb/sChannel(s) : 2 channelsChannel positions : Front: L RSampling rate : 48.0 kHzFrame rate : 46.875 FPS (1024 spf)Compression mode : LossyStream size : 89.5 MiB (5%)Title : Dub [iTunes]Language : RussianEncoded date : UTC 2016-12-29 08:43:07Tagged date : UTC 2016-12-29 15:18:14

Audio #2ID : 3Format : AACFormat/Info : Advanced Audio CodecFormat profile : LCCodec ID : 40Duration : 1 h 37 minBit rate mode : VariableBit rate : 128 kb/sMaximum bit rate : 135 kb/sChannel(s) : 2 channelsChannel positions : Front: L RSampling rate : 48.0 kHzFrame rate : 46.875 FPS (1024 spf)Compression mode : LossyStream size : 89.5 MiB (5%)Title : OriginalLanguage : EnglishEncoded date : UTC 2016-12-29 08:58:39Tagged date : UTC 2016-12-29 15:18:14

TextID : 4Format : Timed TextCodec ID : tx3gDuration : 1 h 31 minBit rate mode : VariableBit rate : 49 b/sStream size : 33.0 KiB (0%)Title : FullLanguage : EnglishForced : NoEncoded date : UTC 2016-12-29 15:18:14Tagged date : UTC 2016-12-29 15:18:14

Menu00:00:00.000 : 100:05:50.000 : 200:09:54.000 : 300:14:06.000 : 400:18:15.000 : 500:23:56.000 : 600:27:58.000 : 700:32:20.000 : 800:38:15.000 : 900:41:41.000 : 1000:45:07.000 : 1100:51:32.000 : 1200:54:22.000 : 1301:01:28.000 : 1401:05:37.000 : 1501:09:27.000 : 1601:15:56.000 : 1701:19:54.000 : 1801:27:06.000 : 1901:33:21.000 : 20
<a href="tracker.php?rid=39840292" class="postLink"> </a>

Трекер:  [ 29-Дек-2016 19:30 ]

  

Скачать .torrent

Размер .torrent файла 19 KB


Размер: 1.9 GB
Хэш (hash) релиза: 0c586bb209a8d22cccbf231e1980088db290f5f9

Еще никто не оставлял запись к записи скачать торрент [VIDEO] Кукла The Boy . Будь первым!

!Обратная связь