Télécharger Part 3 | Faster Pastor 11 This Ravished Rose The Maligned Monarch Beauty Killers Geschichte Des Antisemitismus Kittens | Running Man Episode 128

Скачать через торрент [VIDEO] Бэтмен против Супермена: На заре справедливости Batman v Superman: Dawn of Justice бесплатно русская версия torrent активатор

Статистика раздачи
Размер:  3.23 GB   |    Зарегистрирован:  1 год 6 месяцев   |    .torrent скачан:  52 раза   |   
Раздают:  1  
   
загрузка...
 
Автор Сообщение

Galfimbul

avatar Galfimbul



<span class="post-font-serif1">Бэтмен против Супермена: На заре справедливости / Batman v Superman: Dawn of Justice [Extended Ultimate Edition]</span>

<span class="post-font-serif1">Год выпуска: 2016
Страна: США / Warner Bros. Pictures
Жанр: фантастика, боевик, приключения
Продолжительность: 03:02:33
Перевод №1: русский Профессиональный (полное дублирование) Мосфильм-Мастер + Авторский (одноголосый, закадровый) Алексей "Doctor Joker" Матвеев на расширенные эпизоды
Перевод №2: русский Профессиональный (полное дублирование) Мосфильм-Мастер + Профессиональный (многоголосый, закадровый) Студия "Фокус" на расширенные эпизоды
Перевод №3: Украинский Профессиональный (полное дублирование) + вставки оригинальной речи на расширенные эпизоды
Перевод №4: русский Профессиональный (многоголосый, закадровый) Студия "Фокус"
Перевод №5: русский Авторский (одноголосый, закадровый) Алексей "Doctor Joker" Матвеев
Оригинальная дорожка: Есть
Cубтитры: русские (форсированные, полные), украинские (форсированные, полные), английские (полные)
Дополнительная информация: Русские - форсированные субтитры (надписи и непереведённые места), форсированные субтитры (надписи), полные субтитры License (BD), полные субтитры Анастасия Кисиленко для студии "Фокус", полные субтитры Алексей "Doctor Joker" Матвеев (цензурированы), полные субтитры Алексей "Doctor Joker" Матвеев (ненормативные). Украинские - полные и форсированные субтитры .Английские - полные субтитры, полные субтитры License (BD) для людей с нарушением слуха.</span>
<span class="post-font-serif1">Режиссер: Зак Снайдер / Zack Snyder</span>
<span class="post-font-serif1">В ролях: Генри Кавилл, Бен Аффлек, Галь Гадот, Эми Адамс, Джесси Айзенберг, Джереми Айронс, Дайан Лэйн, Лоренс Фишбёрн, Холли Хантер, Скут МакНэйри, Каллэн Мулвей, Тао Окамото, Брэндон Спинк, Лорен Коэн, Алан Д. Первин, Марк Эдвард Тейлор, Хью Магвайр, Майкл Шеннон, Ханна Дворкин, Тиффани Л. Эддисон и другие .</span>
<span class="post-font-serif1">Описание: Опасаясь, что действия богоподобного супергероя так и останутся бесконтрольными, грозный и могущественный страж Готэм Сити бросает вызов самому почитаемому в наши дни спасителю Метрополиса, в то время как весь остальной мир решает, какой герой ему по-настоящему нужен. И пока Бэтмен и Супермен пребывают в состоянии войны друг с другом, возникает новая угроза, которая ставит человечество под самую большую опасность, с которой оно когда-либо сталкивалось.</span>
<span class="post-font-serif1">Релиз группы </span>
<span class="post-font-serif1">Качество: BDRip / рип с Blu-ray disc 1080p
Формат: MP4
Видео кодек: H.264
Аудио кодек: AAC
Видео: 960x400 AR:2.40 1740 kbps 23.976 fps
Аудио №1: [Russian] 2ch 48 kHz 128 kbps - Профессиональный (полное дублирование) Мосфильм-Мастер + Авторский (одноголосый, закадровый) Алексей "Doctor Joker" Матвеев на расширенные эпизоды
Аудио №2: [Russian] 2ch 48 kHz 128 kbps - Профессиональный (полное дублирование) Мосфильм-Мастер + Многоголосый закадровый Студия "Фокус" на расширенные эпизоды
Аудио №3: [Ukrainian] 2ch 48 kHz 128 kbps - Профессиональный (полное дублирование) + вставки оригинальной речи на расширенные эпизоды
Аудио №4: [Russian] 2ch 48 kHz 128 kbps - Профессиональный (многоголосый, закадровый) Студия "Фокус"
Аудио №5:[Russian] 2ch 48 kHz 128 kbps - Авторский (одноголосый, закадровый) Алексей "Doctor Joker" Матвеев
Аудио №6: [English] 2ch 48 kHz 128 kbps - Оригинал</span>
avs [info]: 960x400p 1:1 @ 2997/125 fps (cfr)
x264 [info]: using SAR=1/1
x264 [info]: using cpu capabilities: MMX2 SSE2Fast SSSE3 SSE4.2 AVX FMA3 AVX2 LZCNT BMI2
x264 [info]: profile High, level 4.1

x264 [info]: frame I:1928 Avg QP:16.84 size: 47383
x264 [info]: frame P:66728 Avg QP:20.43 size: 16687
x264 [info]: frame B:193969 Avg QP:22.41 size: 6056
x264 [info]: consecutive B-frames: 5.6% 4.2% 8.8% 22.2% 18.5% 26.5% 6.4% 3.9% 2.2% 1.7%
x264 [info]: mb I I16..4: 8.1% 70.7% 21.2%
x264 [info]: mb P I16..4: 1.1% 9.0% 1.4% P16..4: 32.3% 37.1% 10.2% 0.0% 0.0% skip: 8.8%
x264 [info]: mb B I16..4: 0.1% 0.8% 0.1% B16..8: 40.3% 18.3% 3.2% direct: 4.6% skip:32.6% L0:44.8% L1:47.4% BI: 7.8%
x264 [info]: 8x8 transform intra:77.0% inter:60.4%
x264 [info]: direct mvs spatial:97.7% temporal:2.3%
x264 [info]: coded y,uvDC,uvAC intra: 82.1% 70.4% 39.1% inter: 25.9% 14.5% 3.4%
x264 [info]: i16 v,h,dc,p: 24% 20% 8% 49%
x264 [info]: i8 v,h,dc,ddl,ddr,vr,hd,vl,hu: 6% 6% 8% 11% 16% 14% 15% 11% 13%
x264 [info]: i4 v,h,dc,ddl,ddr,vr,hd,vl,hu: 7% 7% 6% 10% 16% 14% 15% 11% 14%
x264 [info]: i8c dc,h,v,p: 33% 31% 18% 18%
x264 [info]: Weighted P-Frames: Y:20.4% UV:14.5%
x264 [info]: ref P L0: 46.4% 9.4% 16.7% 7.2% 5.5% 4.1% 3.5% 2.2% 2.2% 2.0% 0.9% 0.1%
x264 [info]: ref B L0: 75.3% 10.7% 5.6% 2.7% 1.9% 1.6% 1.3% 0.6% 0.3%
x264 [info]: ref B L1: 94.4% 5.6%
x264 [info]: kb/s:1737.81

encoded 262625 frames, 14.28 fps, 1737.81 kb/s
GeneralComplete name : D:\Torrents\Batman v Superman Dawn of Justice.(Extended Ultimate Edition).2016.BDRip.x264.960x.rip by Frost O.S.mp4Format : MPEG-4Format profile : Base MediaCodec ID : isom (isom/avc1/iso2)File size : 3.23 GiBDuration : 3 h 2 minOverall bit rate mode : VariableOverall bit rate : 2 532 kb/sMovie name : Batman v Superman Dawn of Justice (Extended Ultimate Edition) 2016 BDRip x264 960x rip by Frost O SGenre : ActionContentType : Short FilmEncoded date : UTC 2016-12-29 07:51:59Tagged date : UTC 2016-12-29 07:57:02Writing application : MkvToMp4 version: 0.224 (x64)Cover : YesComment : rip by Frost O.SLongDescription : Опасаясь, что действия богоподобного супергероя так и останутся бесконтрольными, грозный и могущественный страж Готэм Сити бросает вызов самому почитаемому в наши дни спасителю Метрополиса, в то время как весь остальной мир решает, какой герой ему по-настоящему нужен. И пока Бэтмен и Супермен пребывают в состоянии войны друг с другом, возникает новая угроза, которая ставит человечество под самую большую опасность, с которой оно когда-либо сталкивалось.

VideoID : 1Format : AVCFormat/Info : Advanced Video CodecFormat profile : [email protected] settings, CABAC : YesFormat settings, ReFrames : 10 framesCodec ID : avc1Codec ID/Info : Advanced Video CodingDuration : 3 h 2 minBit rate : 1 740 kb/sMaximum bit rate : 7 761 kb/sWidth : 960 pixelsHeight : 400 pixelsDisplay aspect ratio : 2.40:1Frame rate mode : ConstantFrame rate : 23.976 (24000/1001) FPSOriginal frame rate : 23.976 (23976/1000) FPSColor space : YUVChroma subsampling : 4:2:0Bit depth : 8 bitsScan type : ProgressiveBits/(Pixel*Frame) : 0.189Stream size : 2.22 GiB (69%)Writing library : x264 core 148 r2705 3f5ed56Encoding settings : cabac=1 / ref=10 / deblock=1:-1:-1 / analyse=0x3:0x113 / me=umh / subme=11 / psy=1 / psy_rd=1.17:0.00 / mixed_ref=1 / me_range=32 / chroma_me=1 / trellis=2 / 8x8dct=1 / cqm=0 / deadzone=21,11 / fast_pskip=0 / chroma_qp_offset=-2 / threads=6 / lookahead_threads=1 / sliced_threads=0 / nr=0 / decimate=0 / interlaced=0 / bluray_compat=0 / constrained_intra=0 / bframes=9 / b_pyramid=2 / b_adapt=2 / b_bias=0 / direct=3 / weightb=1 / open_gop=0 / weightp=2 / keyint=250 / keyint_min=23 / scenecut=40 / intra_refresh=0 / rc=2pass / mbtree=0 / bitrate=1740 / ratetol=1.0 / qcomp=0.75 / qpmin=0 / qpmax=69 / qpstep=4 / cplxblur=20.0 / qblur=0.5 / ip_ratio=1.40 / pb_ratio=1.30 / aq=2:1.00Language : EnglishEncoded date : UTC 2016-12-29 07:51:59Tagged date : UTC 2016-12-29 07:53:46Color range : LimitedColor primaries : BT.709Transfer characteristics : BT.709Matrix coefficients : BT.709

Audio #1ID : 2Format : AACFormat/Info : Advanced Audio CodecFormat profile : LCCodec ID : 40Duration : 3 h 2 minBit rate mode : VariableBit rate : 128 kb/sMaximum bit rate : 135 kb/sChannel(s) : 2 channelsChannel positions : Front: L RSampling rate : 48.0 kHzFrame rate : 46.875 FPS (1024 spf)Compression mode : LossyStream size : 167 MiB (5%)Title : Dub_ MosfilmMaster_VO Matveev / Dub_ MosfilmMaster_VO MatveevLanguage : RussianDefault : YesAlternate group : 1Encoded date : UTC 2016-12-29 07:52:43Tagged date : UTC 2016-12-29 07:53:46

Audio #2ID : 3Format : AACFormat/Info : Advanced Audio CodecFormat profile : LCCodec ID : 40Duration : 3 h 2 minBit rate mode : VariableBit rate : 128 kb/sMaximum bit rate : 135 kb/sChannel(s) : 2 channelsChannel positions : Front: L RSampling rate : 48.0 kHzFrame rate : 46.875 FPS (1024 spf)Compression mode : LossyStream size : 167 MiB (5%)Title : Dub_ MosfilmMaster_MVO Studiya _Focus_ / Dub_ MosfilmMaster_MVO Studiya _Focus_Language : RussianDefault : NoAlternate group : 1Encoded date : UTC 2016-12-29 07:52:58Tagged date : UTC 2016-12-29 07:53:46

Audio #3ID : 4Format : AACFormat/Info : Advanced Audio CodecFormat profile : LCCodec ID : 40Duration : 3 h 2 minBit rate mode : VariableBit rate : 128 kb/sMaximum bit rate : 133 kb/sChannel(s) : 2 channelsChannel positions : Front: L RSampling rate : 48.0 kHzFrame rate : 46.875 FPS (1024 spf)Compression mode : LossyStream size : 167 MiB (5%)Title : Dub_Original / Dub_OriginalLanguage : UkrainianDefault : NoAlternate group : 1Encoded date : UTC 2016-12-29 07:53:09Tagged date : UTC 2016-12-29 07:53:46

Audio #4ID : 5Format : AACFormat/Info : Advanced Audio CodecFormat profile : LCCodec ID : 40Duration : 3 h 2 minBit rate mode : VariableBit rate : 128 kb/sMaximum bit rate : 135 kb/sChannel(s) : 2 channelsChannel positions : Front: L RSampling rate : 48.0 kHzFrame rate : 46.875 FPS (1024 spf)Compression mode : LossyStream size : 167 MiB (5%)Title : MVO Studiya _Focus_ / MVO Studiya _Focus_Language : RussianDefault : NoAlternate group : 1Encoded date : UTC 2016-12-29 07:53:19Tagged date : UTC 2016-12-29 07:53:46

Audio #5ID : 6Format : AACFormat/Info : Advanced Audio CodecFormat profile : LCCodec ID : 40Duration : 3 h 2 minBit rate mode : VariableBit rate : 128 kb/sMaximum bit rate : 135 kb/sChannel(s) : 2 channelsChannel positions : Front: L RSampling rate : 48.0 kHzFrame rate : 46.875 FPS (1024 spf)Compression mode : LossyStream size : 167 MiB (5%)Title : VO Matveev / VO MatveevLanguage : RussianDefault : NoAlternate group : 1Encoded date : UTC 2016-12-29 07:53:28Tagged date : UTC 2016-12-29 07:53:46

Audio #6ID : 7Format : AACFormat/Info : Advanced Audio CodecFormat profile : LCCodec ID : 40Duration : 3 h 2 minBit rate mode : VariableBit rate : 128 kb/sMaximum bit rate : 134 kb/sChannel(s) : 2 channelsChannel positions : Front: L RSampling rate : 48.0 kHzFrame rate : 46.875 FPS (1024 spf)Compression mode : LossyStream size : 167 MiB (5%)Title : Original / OriginalLanguage : EnglishDefault : NoAlternate group : 1Encoded date : UTC 2016-12-29 07:53:36Tagged date : UTC 2016-12-29 07:53:46

Text #1ID : 8Format : Timed TextMuxing mode : sbtlCodec ID : tx3gDuration : 3 h 2 minBit rate mode : VariableBit rate : 5 b/sStream size : 6.57 KiB (0%)Title : Forced / ForcedLanguage : RussianDefault : YesForced : NoAlternate group : 2Encoded date : UTC 2016-12-29 07:53:46Tagged date : UTC 2016-12-29 07:53:46

Text #2ID : 9Format : Timed TextMuxing mode : sbtlCodec ID : tx3gDuration : 3 h 2 minBit rate mode : VariableBit rate : 74 b/sStream size : 98.7 KiB (0%)Title : Full / FullLanguage : RussianDefault : NoForced : NoAlternate group : 2Encoded date : UTC 2016-12-29 07:53:46Tagged date : UTC 2016-12-29 07:53:46

Text #3ID : 10Format : Timed TextMuxing mode : sbtlCodec ID : tx3gDuration : 2 h 54 minBit rate mode : VariableBit rate : 72 b/sStream size : 92.4 KiB (0%)Title : Studiya _Focus_ / Studiya _Focus_Language : RussianDefault : NoForced : NoAlternate group : 2Encoded date : UTC 2016-12-29 07:53:46Tagged date : UTC 2016-12-29 07:53:46

Text #4ID : 11Format : Timed TextMuxing mode : sbtlCodec ID : tx3gDuration : 2 h 59 minBit rate mode : VariableBit rate : 65 b/sStream size : 86.1 KiB (0%)Title : VO Matveev _censured_ / VO Matveev _censured_Language : RussianDefault : NoForced : NoAlternate group : 2Encoded date : UTC 2016-12-29 07:53:46Tagged date : UTC 2016-12-29 07:53:46

Text #5ID : 12Format : Timed TextMuxing mode : sbtlCodec ID : tx3gDuration : 2 h 59 minBit rate mode : VariableBit rate : 65 b/sStream size : 86.1 KiB (0%)Title : VO Matveev _nenormativnue_ / VO Matveev _nenormativnue_Language : RussianDefault : NoForced : NoAlternate group : 2Encoded date : UTC 2016-12-29 07:53:46Tagged date : UTC 2016-12-29 07:53:46

Text #6ID : 13Format : Timed TextMuxing mode : sbtlCodec ID : tx3gDuration : 2 h 55 minBit rate mode : VariableBit rate : 19 b/sStream size : 25.1 KiB (0%)Title : Forced / ForcedLanguage : UkrainianDefault : NoForced : NoAlternate group : 2Encoded date : UTC 2016-12-29 07:53:46Tagged date : UTC 2016-12-29 07:53:46

Text #7ID : 14Format : Timed TextMuxing mode : sbtlCodec ID : tx3gDuration : 2 h 53 minBit rate mode : VariableBit rate : 72 b/sStream size : 91.5 KiB (0%)Title : Full / FullLanguage : UkrainianDefault : NoForced : NoAlternate group : 2Encoded date : UTC 2016-12-29 07:53:46Tagged date : UTC 2016-12-29 07:53:46

Text #8ID : 15Format : Timed TextMuxing mode : sbtlCodec ID : tx3gDuration : 3 h 2 minBit rate mode : VariableBit rate : 53 b/sStream size : 70.2 KiB (0%)Title : Full / FullLanguage : EnglishDefault : NoForced : NoAlternate group : 2Encoded date : UTC 2016-12-29 07:53:46Tagged date : UTC 2016-12-29 07:53:46

Text #9ID : 16Format : Timed TextMuxing mode : sbtlCodec ID : tx3gDuration : 3 h 2 minBit rate mode : VariableBit rate : 54 b/sStream size : 72.9 KiB (0%)Title : SDH / SDHLanguage : EnglishDefault : NoForced : NoAlternate group : 2Encoded date : UTC 2016-12-29 07:53:46Tagged date : UTC 2016-12-29 07:53:46


Трекер:  [ 29-Дек-2016 10:30 ]

  

Скачать .torrent

Размер .torrent файла 16 KB


Размер: 3.23 GB
Хэш (hash) релиза: e3b9f52807feb70ef83a864d62bcbdbb02692723

Еще никто не оставлял запись к записи скачать торрент [VIDEO] Бэтмен против Супермена: На заре справедливости Batman v Superman: Dawn of Justice . Будь первым!

!Обратная связь