Revenge BluRay-Screeener | My Sassy Girl ... | Big Brother (us): ...

Скачать через торрент [VIDEO] Бэтмен против Супермена: На заре справедливости Batman v Superman: Dawn of Justice бесплатно русская версия torrent активатор

Статистика раздачи
Размер:  779 MB   |    Зарегистрирован:  1 год 6 месяцев   |    .torrent скачан:  26 раз   |   
Раздают:  1  
   
загрузка...
 
Автор Сообщение

Galfimbul

avatar Galfimbul



<span class="post-font-serif1">Бэтмен против Супермена: На заре справедливости / Batman v Superman: Dawn of Justice [Extended Ultimate Edition]</span>

<span class="post-font-serif1">Год выпуска: 2016
Страна: США / Warner Bros. Pictures
Жанр: фантастика, боевик, приключения
Продолжительность: 03:02:33
Перевод: русский Профессиональный (полное дублирование) Мосфильм-Мастер + Авторский (одноголосый, закадровый) Алексей "Doctor Joker" Матвеев на расширенные эпизоды
Cубтитры: нет</span>
<span class="post-font-serif1">Режиссер: Зак Снайдер / Zack Snyder</span>
<span class="post-font-serif1">В ролях: Генри Кавилл, Бен Аффлек, Галь Гадот, Эми Адамс, Джесси Айзенберг, Джереми Айронс, Дайан Лэйн, Лоренс Фишбёрн, Холли Хантер, Скут МакНэйри, Каллэн Мулвей, Тао Окамото, Брэндон Спинк, Лорен Коэн, Алан Д. Первин, Марк Эдвард Тейлор, Хью Магвайр, Майкл Шеннон, Ханна Дворкин, Тиффани Л. Эддисон и другие .</span>
<span class="post-font-serif1">Описание: Опасаясь, что действия богоподобного супергероя так и останутся бесконтрольными, грозный и могущественный страж Готэм Сити бросает вызов самому почитаемому в наши дни спасителю Метрополиса, в то время как весь остальной мир решает, какой герой ему по-настоящему нужен. И пока Бэтмен и Супермен пребывают в состоянии войны друг с другом, возникает новая угроза, которая ставит человечество под самую большую опасность, с которой оно когда-либо сталкивалось.</span>
<span class="post-font-serif1">Релиз группы </span>
<span class="post-font-serif1">Качество: HDRip / рип с BDRip 720p
Формат: MP4
Видео кодек: XviD
Аудио кодек: AAC
Видео: 480x200 AR:2.40 461 kbps 23.976 fps
Аудио: [Russian] 2ch 48 kHz 128 kbps - Профессиональный (полное дублирование) Мосфильм-Мастер + Авторский (одноголосый, закадровый) Алексей "Doctor Joker" Матвеев на расширенные эпизоды</span>
GeneralComplete name : D:\Torrents\Batman v Superman Dawn of Justice.(Extended Ultimate Edition).2016.HDRip.XviD.480x.rip by Frost O.S.mp4Format : MPEG-4Format profile : Base MediaCodec ID : isom (isom/iso2)File size : 779 MiBDuration : 3 h 2 minOverall bit rate mode : VariableOverall bit rate : 596 kb/sMovie name : Batman v Superman Dawn of Justice (Extended Ultimate Edition) 2016 HDRip XviD 480x rip by Frost O SGenre : ActionContentType : Short FilmEncoded date : UTC 2016-12-29 08:03:54Tagged date : UTC 2016-12-29 08:04:27Writing application : MkvToMp4 version: 0.224 (x64)Cover : YesComment : rip by Frost O.SLongDescription : Опасаясь, что действия богоподобного супергероя так и останутся бесконтрольными, грозный и могущественный страж Готэм Сити бросает вызов самому почитаемому в наши дни спасителю Метрополиса, в то время как весь остальной мир решает, какой герой ему по-настоящему нужен. И пока Бэтмен и Супермен пребывают в состоянии войны друг с другом, возникает новая угроза, которая ставит человечество под самую большую опасность, с которой оно когда-либо сталкивалось.

VideoID : 1Format : MPEG-4 VisualFormat profile : Advanced [email protected] settings, BVOP : YesFormat settings, QPel : NoFormat settings, GMC : No warppointsFormat settings, Matrix : CustomCodec ID : 20Duration : 3 h 2 minBit rate mode : VariableBit rate : 461 kb/sMaximum bit rate : 194 Mb/sWidth : 480 pixelsHeight : 200 pixelsDisplay aspect ratio : 2.40:1Frame rate mode : VariableFrame rate : 23.976 (23976/1000) FPSMinimum frame rate : 11.988 FPSMaximum frame rate : 23.976 FPSColor space : YUVChroma subsampling : 4:2:0Bit depth : 8 bitsScan type : ProgressiveCompression mode : LossyBits/(Pixel*Frame) : 0.200Stream size : 602 MiB (77%)Title : avi_GPAC0.5.2_DEV_rev248_g39d5978_masterWriting library : XviD 1.2.1 (UTC 2008-12-04)Language : EnglishTagged date : UTC 2016-12-29 08:04:04

AudioID : 2Format : AACFormat/Info : Advanced Audio CodecFormat profile : LCCodec ID : 40Duration : 3 h 2 minBit rate mode : VariableBit rate : 128 kb/sMaximum bit rate : 135 kb/sChannel(s) : 2 channelsChannel positions : Front: L RSampling rate : 48.0 kHzFrame rate : 46.875 FPS (1024 spf)Compression mode : LossyStream size : 167 MiB (21%)Title : Dub_ MosfilmMaster_VO Matveev / Dub_ MosfilmMaster_VO MatveevLanguage : RussianDefault : YesAlternate group : 1Encoded date : UTC 2016-12-29 08:04:01Tagged date : UTC 2016-12-29 08:04:04


Трекер:  [ 29-Дек-2016 10:30 ]

  

Скачать .torrent

Размер .torrent файла 15 KB


Размер: 779 MB
Хэш (hash) релиза: 27ccc430c5f7029f6e46651552d206074703e60d

Еще никто не оставлял запись к записи скачать торрент [VIDEO] Бэтмен против Супермена: На заре справедливости Batman v Superman: Dawn of Justice . Будь первым!

!Обратная связь