[Windows] 3delite MP4 Video & Audio Tag Editor 1.0.77.95 ANG (32/64 bit) [Setup + Portable] | Professional and Technical | Miguel Ángel Solá

Скачать через торрент [VIDEO] Люди Икс: Апокалипсис X-Men: Apocalypse бесплатно русская версия torrent активатор

Статистика раздачи
Размер:  2.15 GB   |    Зарегистрирован:  1 год 6 месяцев   |    .torrent скачан:  58 раз   |   
Раздают:  1  
   
загрузка...
 
Автор Сообщение

Galfimbul

avatar Galfimbul


<span class="post-font-serif1">Люди Икс: Апокалипсис / X-Men: Apocalypse</span>

<span class="post-font-serif1">Год выпуска: 2016
Страна: США / 20th Century Fox Film Corporation
Жанр: фантастика, боевик, приключения
Продолжительность:
Перевод №1: русский Профессиональный (полное дублирование) Blu-ray EUR
Перевод №2: украинский Профессиональный (полное дублирование) Blu-ray EUR
Перевод №3: русский Профессиональный (многоголосый, закадровый) FocusStudio
Оригинальная дорожка: Есть
Cубтитры: русские (Forced - iTunes, iTunes), английские (Forced - iTunes, iTunes)</span>
<span class="post-font-serif1">Режиссер: Брайан Сингер / Bryan Singer</span>
<span class="post-font-serif1">В ролях: Джеймс МакЭвой, Майкл Фассбендер, Дженнифер Лоуренс, Николас Холт, Оскар Айзек, Роуз Бирн, Эван Питерс, Джош Хелман, Софи Тернер, Тай Шеридан и другие .</span>
<span class="post-font-serif1">Описание: События «Дней Минувшего Будущего» оказали колоссальное влияние на мир, где мутанты и люди борются за свое место под Солнцем. В это нелегкое время Людям Икс предстоит столкнуться со своим самым опасным противником - древним мутантом Апокалипсисом, существом, схватка с которым может стать последней не только для мутантов, но и в принципе для всего человечества. В поисках способа победы над неуязвимым и бессмертным монстром Людям Икс предстоит узнать больше о происхождении своего вида. Но Апокалипсис неимоверно силен, и вероятность победы все уменьшается, ведь он твердо убежден, что только сильнейшие имеют право на выживание...</span>
<span class="post-font-serif1">Релиз группы </span>
<span class="post-font-serif1">Качество: BDRip / рип с BDRemux 1080p
Формат: MP4
Видео кодек: H.264
Аудио кодек: AAC
Видео: 960x400 AR:2.40 1604 kbps 23.976 fps
Аудио №1: [Russian] 2ch 48 kHz 128 kbps - [Dub] Профессиональный (полное дублирование) Blu-ray EUR
Аудио №2: [Ukrainian] 2ch 48 kHz 128 kbps - [Dub] Профессиональный (полное дублирование) Blu-ray EUR
Аудио №3: [Russian] 2ch 48 kHz 128 kbps - [MVO] Профессиональный (многоголосый, закадровый) FocusStudio
Аудио №4: [English] 2ch 48 kHz 128 kbps - Оригинал</span>
avs [info]: 960x400p 1:1 @ 2997/125 fps (cfr)
x264 [info]: using SAR=1/1
x264 [info]: using cpu capabilities: MMX2 SSE2Fast SSSE3 SSE4.2 AVX FMA3 AVX2 LZCNT BMI2
x264 [info]: profile High, level 4.1

x264 [info]: frame I:2425 Avg QP:16.18 size: 56874
x264 [info]: frame P:52452 Avg QP:19.92 size: 16403
x264 [info]: frame B:152187 Avg QP:21.90 size: 4819
x264 [info]: consecutive B-frames: 4.8% 4.7% 12.8% 23.4% 16.7% 27.1% 5.7% 1.8% 1.7% 1.2%
x264 [info]: mb I I16..4: 4.9% 73.2% 21.9%
x264 [info]: mb P I16..4: 0.6% 8.0% 1.4% P16..4: 34.4% 40.3% 12.7% 0.0% 0.0% skip: 2.5%
x264 [info]: mb B I16..4: 0.0% 0.9% 0.1% B16..8: 37.2% 18.6% 2.6% direct: 4.2% skip:36.2% L0:42.0% L1:44.9% BI:13.1%
x264 [info]: 8x8 transform intra:78.7% inter:62.2%
x264 [info]: direct mvs spatial:96.0% temporal:4.0%
x264 [info]: coded y,uvDC,uvAC intra: 91.7% 88.4% 65.3% inter: 20.4% 18.8% 8.2%
x264 [info]: i16 v,h,dc,p: 13% 16% 3% 68%
x264 [info]: i8 v,h,dc,ddl,ddr,vr,hd,vl,hu: 7% 7% 3% 11% 16% 14% 15% 13% 14%
x264 [info]: i4 v,h,dc,ddl,ddr,vr,hd,vl,hu: 7% 7% 3% 10% 17% 15% 15% 12% 14%
x264 [info]: i8c dc,h,v,p: 40% 22% 17% 21%
x264 [info]: Weighted P-Frames: Y:14.8% UV:10.0%
x264 [info]: ref P L0: 52.6% 11.6% 14.9% 6.3% 4.6% 3.4% 2.6% 1.8% 1.8% 0.4% 0.0%
x264 [info]: ref B L0: 77.7% 10.1% 5.1% 2.4% 2.4% 1.4% 0.7% 0.3%
x264 [info]: ref B L1: 94.6% 5.4%
x264 [info]: kb/s:1604.14

encoded 207064 frames, 15.49 fps, 1604.14 kb/s
GeneralComplete name : D:\Torrents\X-Men Apocalypse.2016.BDRip.x264.960x.rip by Frost O.S.mp4Format : MPEG-4Format profile : Base MediaCodec ID : isom (isom/avc1/iso2)File size : 2.15 GiBDuration : 2 h 23 minOverall bit rate mode : VariableOverall bit rate : 2 135 kb/sMovie name : X-Men Apocalypse 2016 BDRip x264 960x rip by Frost O SGenre : ActionContentType : Short FilmEncoded date : UTC 2016-12-28 07:32:38Tagged date : UTC 2016-12-28 07:37:28Writing application : MkvToMp4 version: 0.224 (x64)Cover : YesComment : rip by Frost O.SLongDescription : События «Дней Минувшего Будущего» оказали колоссальное влияние на мир, где мутанты и люди борются за свое место под Солнцем. В это нелегкое время Людям Икс предстоит столкнуться со своим самым опасным противником - древним мутантом Апокалипсисом, существом, схватка с которым может стать последней не только для мутантов, но и в принципе для всего человечества. В поисках способа победы над неуязвимым и бессмертным монстром Людям Икс предстоит узнать больше о происхождении своего вида. Но Апокалипсис неимоверно силен, и вероятность победы все уменьшается, ведь он твердо убежден, что только сильнейшие имеют право на выживание...

VideoID : 1Format : AVCFormat/Info : Advanced Video CodecFormat profile : [email protected] settings, CABAC : YesFormat settings, ReFrames : 9 framesCodec ID : avc1Codec ID/Info : Advanced Video CodingDuration : 2 h 23 minBit rate : 1 604 kb/sMaximum bit rate : 8 334 kb/sWidth : 960 pixelsHeight : 400 pixelsDisplay aspect ratio : 2.40:1Frame rate mode : ConstantFrame rate : 23.976 (24000/1001) FPSOriginal frame rate : 23.976 (23976/1000) FPSColor space : YUVChroma subsampling : 4:2:0Bit depth : 8 bitsScan type : ProgressiveBits/(Pixel*Frame) : 0.174Stream size : 1.61 GiB (75%)Writing library : x264 core 148 r2705 3f5ed56Encoding settings : cabac=1 / ref=9 / deblock=1:-2:-2 / analyse=0x3:0x113 / me=umh / subme=11 / psy=1 / psy_rd=1.20:0.00 / mixed_ref=1 / me_range=32 / chroma_me=1 / trellis=2 / 8x8dct=1 / cqm=0 / deadzone=21,11 / fast_pskip=0 / chroma_qp_offset=-2 / threads=6 / lookahead_threads=1 / sliced_threads=0 / nr=0 / decimate=0 / interlaced=0 / bluray_compat=0 / constrained_intra=0 / bframes=9 / b_pyramid=2 / b_adapt=2 / b_bias=0 / direct=3 / weightb=1 / open_gop=0 / weightp=2 / keyint=250 / keyint_min=23 / scenecut=40 / intra_refresh=0 / rc=2pass / mbtree=0 / bitrate=1604 / ratetol=1.0 / qcomp=0.80 / qpmin=0 / qpmax=69 / qpstep=4 / cplxblur=20.0 / qblur=0.5 / ip_ratio=1.40 / pb_ratio=1.30 / aq=2:0.90Language : EnglishEncoded date : UTC 2016-12-28 07:32:38Tagged date : UTC 2016-12-28 07:34:14Color range : LimitedColor primaries : BT.709Transfer characteristics : BT.709Matrix coefficients : BT.709

Audio #1ID : 2Format : AACFormat/Info : Advanced Audio CodecFormat profile : LCCodec ID : 40Duration : 2 h 23 minBit rate mode : VariableBit rate : 128 kb/sMaximum bit rate : 135 kb/sChannel(s) : 2 channelsChannel positions : Front: L RSampling rate : 48.0 kHzFrame rate : 46.875 FPS (1024 spf)Compression mode : LossyStream size : 132 MiB (6%)Title : Dub_ Blu_ray EUR / Dub_ Blu_ray EURLanguage : RussianDefault : YesAlternate group : 1Encoded date : UTC 2016-12-28 07:33:31Tagged date : UTC 2016-12-28 07:34:14

Audio #2ID : 3Format : AACFormat/Info : Advanced Audio CodecFormat profile : LCCodec ID : 40Duration : 2 h 23 minBit rate mode : VariableBit rate : 128 kb/sMaximum bit rate : 135 kb/sChannel(s) : 2 channelsChannel positions : Front: L RSampling rate : 48.0 kHzFrame rate : 46.875 FPS (1024 spf)Compression mode : LossyStream size : 132 MiB (6%)Title : Dub_ Blu_ray EUR / Dub_ Blu_ray EURLanguage : UkrainianDefault : NoAlternate group : 1Encoded date : UTC 2016-12-28 07:33:44Tagged date : UTC 2016-12-28 07:34:14

Audio #3ID : 4Format : AACFormat/Info : Advanced Audio CodecFormat profile : LCCodec ID : 40Duration : 2 h 23 minBit rate mode : VariableBit rate : 128 kb/sMaximum bit rate : 135 kb/sChannel(s) : 2 channelsChannel positions : Front: L RSampling rate : 48.0 kHzFrame rate : 46.875 FPS (1024 spf)Compression mode : LossyStream size : 132 MiB (6%)Title : MVO_ FocusStudio / MVO_ FocusStudioLanguage : RussianDefault : NoAlternate group : 1Encoded date : UTC 2016-12-28 07:33:55Tagged date : UTC 2016-12-28 07:34:14

Audio #4ID : 5Format : AACFormat/Info : Advanced Audio CodecFormat profile : LCCodec ID : 40Duration : 2 h 23 minBit rate mode : VariableBit rate : 128 kb/sMaximum bit rate : 135 kb/sChannel(s) : 2 channelsChannel positions : Front: L RSampling rate : 48.0 kHzFrame rate : 46.875 FPS (1024 spf)Compression mode : LossyStream size : 132 MiB (6%)Title : Original / OriginalLanguage : EnglishDefault : NoAlternate group : 1Encoded date : UTC 2016-12-28 07:34:04Tagged date : UTC 2016-12-28 07:34:14

Text #1ID : 6Format : Timed TextMuxing mode : sbtlCodec ID : tx3gDuration : 1 h 29 minBit rate mode : VariableBit rate : 5 b/sStream size : 3.49 KiB (0%)Title : Forced _ iTunes / Forced _ iTunesLanguage : RussianDefault : YesForced : NoAlternate group : 2Encoded date : UTC 2016-12-28 07:34:13Tagged date : UTC 2016-12-28 07:34:14

Text #2ID : 7Format : Timed TextMuxing mode : sbtlCodec ID : tx3gDuration : 2 h 23 minBit rate mode : VariableBit rate : 61 b/sStream size : 64.6 KiB (0%)Title : iTunes / iTunesLanguage : RussianDefault : NoForced : NoAlternate group : 2Encoded date : UTC 2016-12-28 07:34:13Tagged date : UTC 2016-12-28 07:34:14

Text #3ID : 8Format : Timed TextMuxing mode : sbtlCodec ID : tx3gDuration : 1 h 29 minBit rate mode : VariableBit rate : 4 b/sStream size : 2.31 KiB (0%)Title : Forced _ iTunes / Forced _ iTunesLanguage : EnglishDefault : NoForced : NoAlternate group : 2Encoded date : UTC 2016-12-28 07:34:13Tagged date : UTC 2016-12-28 07:34:14

Text #4ID : 9Format : Timed TextMuxing mode : sbtlCodec ID : tx3gDuration : 2 h 13 minBit rate mode : VariableBit rate : 44 b/sStream size : 43.0 KiB (0%)Title : iTunes / iTunesLanguage : EnglishDefault : NoForced : NoAlternate group : 2Encoded date : UTC 2016-12-28 07:34:13Tagged date : UTC 2016-12-28 07:34:14


Трекер:  [ 28-Дек-2016 10:00 ]

  

Скачать .torrent

Размер .torrent файла 11 KB


Размер: 2.15 GB
Хэш (hash) релиза: 7a1c127ad3495f898796da294a2f39ec5e159245

Торренты, похожие на [VIDEO] Люди Икс: Апокалипсис X-Men: Apocalypse скачать торрент

Форум Название Автор Размер S L Добавлен
Видео (Фильмы/Клипы) ·· [VIDEO] Люди Икс: Апокалипсис / X-Men: Apocalypse (Брайан Сингер / Bryan Singer) [2016, фантастика, боевик, приключения, HDRip] [MP4, 480x] Dub Galfimbul 671049649640 MB 0 0 1482912899

11:14

28-Дек-16

Еще никто не оставлял запись к записи скачать торрент [VIDEO] Люди Икс: Апокалипсис X-Men: Apocalypse . Будь первым!

!Обратная связь