Chicago Fire | Mobile Suit Zeta Gundam | Paul, Apostle of Christ (2018) RATING 7.1 / 10 QUALITY

Скачать через торрент [VIDEO] Люди Икс: Апокалипсис X-Men: Apocalypse бесплатно русская версия torrent активатор

Статистика раздачи
Размер:  640 MB   |    Зарегистрирован:  1 год 6 месяцев   |    .torrent скачан:  19 раз   |   
Раздают:  1  
   
загрузка...
 
Автор Сообщение

Galfimbul

avatar Galfimbul


<span class="post-font-serif1">Люди Икс: Апокалипсис / X-Men: Apocalypse</span>

<span class="post-font-serif1">Год выпуска: 2016
Страна: США / 20th Century Fox Film Corporation
Жанр: фантастика, боевик, приключения
Продолжительность:
Перевод: русский Профессиональный (полное дублирование) Blu-ray EUR
Cубтитры: нет</span>
<span class="post-font-serif1">Режиссер: Брайан Сингер / Bryan Singer</span>
<span class="post-font-serif1">В ролях: Джеймс МакЭвой, Майкл Фассбендер, Дженнифер Лоуренс, Николас Холт, Оскар Айзек, Роуз Бирн, Эван Питерс, Джош Хелман, Софи Тернер, Тай Шеридан и другие .</span>
<span class="post-font-serif1">Описание: События «Дней Минувшего Будущего» оказали колоссальное влияние на мир, где мутанты и люди борются за свое место под Солнцем. В это нелегкое время Людям Икс предстоит столкнуться со своим самым опасным противником - древним мутантом Апокалипсисом, существом, схватка с которым может стать последней не только для мутантов, но и в принципе для всего человечества. В поисках способа победы над неуязвимым и бессмертным монстром Людям Икс предстоит узнать больше о происхождении своего вида. Но Апокалипсис неимоверно силен, и вероятность победы все уменьшается, ведь он твердо убежден, что только сильнейшие имеют право на выживание...</span>
<span class="post-font-serif1">Релиз группы </span>
<span class="post-font-serif1">Качество: HDRip / рип с BDRip 720p
Формат: MP4
Видео кодек: XviD
Аудио кодек: AAC
Видео: 480x200 AR:2.40 486 kbps 23.976 fps
Аудио: [Russian] 2ch 48 kHz 128 kbps - [Dub] Профессиональный (полное дублирование) Blu-ray EUR</span>
GeneralComplete name : D:\Torrents\X-Men Apocalypse.2016.HDRip.XviD.480x.rip by Frost O.S.mp4Format : MPEG-4Format profile : Base MediaCodec ID : isom (isom/iso2)File size : 640 MiBDuration : 2 h 23 minOverall bit rate mode : VariableOverall bit rate : 622 kb/sMovie name : X-Men Apocalypse 2016 HDRip XviD 480x rip by Frost O SGenre : ActionContentType : Short FilmEncoded date : UTC 2016-12-28 07:44:28Tagged date : UTC 2016-12-28 07:45:48Writing application : MkvToMp4 version: 0.224 (x64)Cover : YesComment : rip by Frost O.SLongDescription : События «Дней Минувшего Будущего» оказали колоссальное влияние на мир, где мутанты и люди борются за свое место под Солнцем. В это нелегкое время Людям Икс предстоит столкнуться со своим самым опасным противником - древним мутантом Апокалипсисом, существом, схватка с которым может стать последней не только для мутантов, но и в принципе для всего человечества. В поисках способа победы над неуязвимым и бессмертным монстром Людям Икс предстоит узнать больше о происхождении своего вида. Но Апокалипсис неимоверно силен, и вероятность победы все уменьшается, ведь он твердо убежден, что только сильнейшие имеют право на выживание...

VideoID : 1Format : MPEG-4 VisualFormat profile : Advanced [email protected] settings, BVOP : YesFormat settings, QPel : NoFormat settings, GMC : No warppointsFormat settings, Matrix : CustomCodec ID : 20Duration : 2 h 23 minBit rate mode : VariableBit rate : 486 kb/sMaximum bit rate : 193 Mb/sWidth : 480 pixelsHeight : 200 pixelsDisplay aspect ratio : 2.40:1Frame rate mode : VariableFrame rate : 23.976 (23976/1000) FPSMinimum frame rate : 11.988 FPSMaximum frame rate : 23.976 FPSColor space : YUVChroma subsampling : 4:2:0Bit depth : 8 bitsScan type : ProgressiveCompression mode : LossyBits/(Pixel*Frame) : 0.211Stream size : 500 MiB (78%)Title : avi_GPAC0.5.2_DEV_rev248_g39d5978_masterWriting library : XviD 1.2.1 (UTC 2008-12-04)Language : EnglishTagged date : UTC 2016-12-28 07:44:54

AudioID : 2Format : AACFormat/Info : Advanced Audio CodecFormat profile : LCCodec ID : 40Duration : 2 h 23 minBit rate mode : VariableBit rate : 128 kb/sMaximum bit rate : 135 kb/sChannel(s) : 2 channelsChannel positions : Front: L RSampling rate : 48.0 kHzFrame rate : 46.875 FPS (1024 spf)Compression mode : LossyStream size : 132 MiB (21%)Title : Dub_ Blu_ray EUR / Dub_ Blu_ray EURLanguage : RussianDefault : YesAlternate group : 1Encoded date : UTC 2016-12-28 07:44:51Tagged date : UTC 2016-12-28 07:44:54


Трекер:  [ 28-Дек-2016 10:00 ]

  

Скачать .torrent

Размер .torrent файла 13 KB


Размер: 640 MB
Хэш (hash) релиза: dd37fe4005d2a26aa0271d615f84f2ae86932860

Торренты, похожие на [VIDEO] Люди Икс: Апокалипсис X-Men: Apocalypse скачать торрент

Форум Название Автор Размер S L Добавлен
Видео (Фильмы/Клипы) ·· [VIDEO] Люди Икс: Апокалипсис / X-Men: Apocalypse (Брайан Сингер / Bryan Singer) [2016, фантастика, боевик, приключения, BDRip] [MP4, 960x] Dub (Rus, Ukr), MVO FocusStudio, Original, Sub (rus, eng) Galfimbul 23046800302.15 GB 0 0 1482912903

11:15

28-Дек-16

Еще никто не оставлял запись к записи скачать торрент [VIDEO] Люди Икс: Апокалипсис X-Men: Apocalypse . Будь первым!

!Обратная связь