Busan One Asia Festival Park Concert | Fast and Furious (Octalogie) FRENCH HDlight 2001-2017 | Napisała: Morderstwo / Murder, She Wrote

Скачать через торрент [VIDEO] Варкрафт Warcraft бесплатно русская версия torrent активатор

Статистика раздачи
Размер:  559 MB   |    Зарегистрирован:  1 год 6 месяцев   |    .torrent скачан:  22 раза   |   
Раздают:  1  
   
загрузка...
 
Автор Сообщение

Galfimbul

avatar Galfimbul


<span class="post-font-serif1">Варкрафт / Warcraft</span>

<span class="post-font-serif1">Год выпуска: 2016
Страна: США / Universal Pictures
Жанр: фэнтези, боевик, приключения
Продолжительность: 02:03:07
Перевод: русский Профессиональный (полное дублирование) Лицензия
Cубтитры: нет</span>
<span class="post-font-serif1">Режиссер: Дункан Джонс / Duncan Jones</span>
<span class="post-font-serif1">В ролях: Трэвис Фиммел (Anduin Lothar), Пола Пэттон (Garona), Бен Фостер (Medivh), Доминик Купер (Llane Wrynn), Тоби Кеббелл (Durotan / Antonidas), Бен Шнетцер (Khadgar), Роберт Казински (Orgrim), Клэнси Браун (Blackhand), Дэниэл Ву (Gul'dan), Рут Негга (Lady Taria), Анна Галвин (Draka), Каллум Кит Ренни (Moroes) и другие .</span>
<span class="post-font-serif1">Описание: Веками магия и неприступные стены защищали людей от любых напастей. Но древнее зло, побежденное и забытое тысячелетия назад, пробудилось. В самом сердце королевства открылся темный портал, и раса невиданных существ наводнила земли Азерота. Так начались события, призванные навсегда изменить судьбу этого мира.</span>
<span class="post-font-serif1">Релиз группы </span>
<span class="post-font-serif1">Качество: HDRip / рип с BDRip 720p
Формат: MP4
Видео кодек: XviD
Аудио кодек: AAC
Видео: 480x200 AR:2.40 499 kbps 23.976 fps
Аудио: [Russian] 2ch 48 kHz 128 kbps - [Dub] Профессиональный (полное дублирование) Лицензия</span>
GeneralComplete name : D:\Torrents\Warcraft.2016.HDRip.XviD.480x.rip by Frost O.S.mp4Format : MPEG-4Format profile : Base MediaCodec ID : isom (isom/iso2)File size : 559 MiBDuration : 2 h 3 minOverall bit rate mode : VariableOverall bit rate : 635 kb/sMovie name : Warcraft 2016 HDRip XviD 480x rip by Frost O SGenre : FantasyContentType : Short FilmEncoded date : UTC 2016-12-27 07:52:35Tagged date : UTC 2016-12-27 07:53:06Writing application : MkvToMp4 version: 0.224 (x64)Cover : YesComment : rip by Frost O.SLongDescription : Веками магия и неприступные стены защищали людей от любых напастей. Но древнее зло, побежденное и забытое тысячелетия назад, пробудилось. В самом сердце королевства открылся темный портал, и раса невиданных существ наводнила земли Азерота. Так начались события, призванные навсегда изменить судьбу этого мира.

VideoID : 1Format : MPEG-4 VisualFormat profile : Advanced [email protected] settings, BVOP : YesFormat settings, QPel : NoFormat settings, GMC : No warppointsFormat settings, Matrix : CustomCodec ID : 20Duration : 2 h 3 minBit rate mode : VariableBit rate : 499 kb/sMaximum bit rate : 194 Mb/sWidth : 480 pixelsHeight : 200 pixelsDisplay aspect ratio : 2.40:1Frame rate mode : VariableFrame rate : 23.976 (23976/1000) FPSMinimum frame rate : 11.988 FPSMaximum frame rate : 23.976 FPSColor space : YUVChroma subsampling : 4:2:0Bit depth : 8 bitsScan type : ProgressiveCompression mode : LossyBits/(Pixel*Frame) : 0.217Stream size : 440 MiB (79%)Title : avi_GPAC0.5.2_DEV_rev248_g39d5978_masterWriting library : XviD 1.2.1 (UTC 2008-12-04)Language : EnglishTagged date : UTC 2016-12-27 07:52:47

AudioID : 2Format : AACFormat/Info : Advanced Audio CodecFormat profile : LCCodec ID : 40Duration : 2 h 3 minBit rate mode : VariableBit rate : 128 kb/sMaximum bit rate : 135 kb/sChannel(s) : 2 channelsChannel positions : Front: L RSampling rate : 48.0 kHzFrame rate : 46.875 FPS (1024 spf)Compression mode : LossyStream size : 113 MiB (20%)Title : Dub_ _Licenziya_ / Dub_ _Licenziya_Language : RussianDefault : YesAlternate group : 1Encoded date : UTC 2016-12-27 07:52:45Tagged date : UTC 2016-12-27 07:52:47


Трекер:  [ 27-Дек-2016 11:00 ]

  

Скачать .torrent

Размер .torrent файла 11 KB


Размер: 559 MB
Хэш (hash) релиза: 98ddb937a2e7e3a04e51e634139528eaed132a5d

Еще никто не оставлял запись к записи скачать торрент [VIDEO] Варкрафт Warcraft . Будь первым!

!Обратная связь