Holly Marie C... | On Wings of Eagles | Nashville

Скачать через торрент [VIDEO] Варкрафт Warcraft бесплатно русская версия torrent активатор

Статистика раздачи
Размер:  2.18 GB   |    Зарегистрирован:  1 год 6 месяцев   |    .torrent скачан:  30 раз   |   
Раздают:  1  
   
загрузка...
 
Автор Сообщение

Galfimbul

avatar Galfimbul


<span class="post-font-serif1">Варкрафт / Warcraft</span>

<span class="post-font-serif1">Год выпуска: 2016
Страна: США / Universal Pictures
Жанр: фэнтези, боевик, приключения
Продолжительность: 02:03:07
Перевод №1: русский Профессиональный (полное дублирование) Лицензия
Перевод №2: украинский Профессиональный (полное дублирование)
Перевод №3: русский Профессиональный (многоголосый, закадровый) FocusStudio
Перевод №4: русский Одноголосый (закадровый) Solod
Перевод №5: русский Авторский (одноголосый, закадровый) Живов
Оригинальная дорожка: Есть
Cубтитры: русские (Forced, Full), английские (Full, SDH)</span>
<span class="post-font-serif1">Режиссер: Дункан Джонс / Duncan Jones</span>
<span class="post-font-serif1">В ролях: Трэвис Фиммел (Anduin Lothar), Пола Пэттон (Garona), Бен Фостер (Medivh), Доминик Купер (Llane Wrynn), Тоби Кеббелл (Durotan / Antonidas), Бен Шнетцер (Khadgar), Роберт Казински (Orgrim), Клэнси Браун (Blackhand), Дэниэл Ву (Gul'dan), Рут Негга (Lady Taria), Анна Галвин (Draka), Каллум Кит Ренни (Moroes) и другие .</span>
<span class="post-font-serif1">Описание: Веками магия и неприступные стены защищали людей от любых напастей. Но древнее зло, побежденное и забытое тысячелетия назад, пробудилось. В самом сердце королевства открылся темный портал, и раса невиданных существ наводнила земли Азерота. Так начались события, призванные навсегда изменить судьбу этого мира.</span>
<span class="post-font-serif1">Релиз группы </span>
<span class="post-font-serif1">Качество: BDRip / рип с BDRemux 1080p
Формат: MP4
Видео кодек: H.264
Аудио кодек: AAC
Видео: 960x394 AR:2.40 1740 kbps 23.976 fps
Аудио №1: [Russian] 2ch 48 kHz 128 kbps - [Dub] Профессиональный (полное дублирование) Лицензия
Аудио №2: [Ukrainian] 2ch 48 kHz 128 kbps - [Dub] Профессиональный (полное дублирование)
Аудио №3: [Russian] 2ch 48 kHz 128 kbps - [MVO] Профессиональный (многоголосый, закадровый) FocusStudio
Аудио №4: [Russian] 2ch 48 kHz 128 kbps - [VO] Одноголосый (закадровый) Solod
Аудио №5: [Russian] 2ch 48 kHz 128 kbps - [VO] Авторский (одноголосый, закадровый) Живов
Аудио №6: [English] 2ch 48 kHz 128 kbps - Оригинал</span>
avs [info]: 960x394p 1:1 @ 2997/125 fps (cfr)
x264 [info]: using SAR=1/1
x264 [info]: using cpu capabilities: MMX2 SSE2Fast SSSE3 SSE4.2 AVX FMA3 AVX2 LZCNT BMI2
x264 [info]: profile High, level 4.1

x264 [info]: frame I:1538 Avg QP:18.00 size: 62494
x264 [info]: frame P:50617 Avg QP:22.27 size: 16631
x264 [info]: frame B:124965 Avg QP:23.77 size: 5349
x264 [info]: consecutive B-frames: 5.5% 8.3% 14.7% 31.6% 16.0% 18.2% 3.1% 1.3% 0.7% 0.6%
x264 [info]: mb I I16..4: 3.7% 70.8% 25.5%
x264 [info]: mb P I16..4: 0.8% 9.3% 2.0% P16..4: 31.9% 33.8% 12.0% 0.0% 0.0% skip:10.2%
x264 [info]: mb B I16..4: 0.1% 1.6% 0.3% B16..8: 33.5% 18.0% 3.4% direct: 4.7% skip:38.4% L0:40.1% L1:45.4% BI:14.5%
x264 [info]: 8x8 transform intra:77.0% inter:58.9%
x264 [info]: direct mvs spatial:96.2% temporal:3.8%
x264 [info]: coded y,uvDC,uvAC intra: 87.5% 84.9% 60.3% inter: 23.4% 18.2% 8.0%
x264 [info]: i16 v,h,dc,p: 26% 20% 7% 47%
x264 [info]: i8 v,h,dc,ddl,ddr,vr,hd,vl,hu: 6% 6% 5% 11% 16% 14% 16% 12% 15%
x264 [info]: i4 v,h,dc,ddl,ddr,vr,hd,vl,hu: 8% 6% 5% 9% 15% 14% 15% 12% 14%
x264 [info]: i8c dc,h,v,p: 41% 23% 16% 20%
x264 [info]: Weighted P-Frames: Y:15.1% UV:10.3%
x264 [info]: ref P L0: 54.2% 14.5% 13.1% 5.7% 3.8% 3.2% 2.9% 2.0% 0.5% 0.0%
x264 [info]: ref B L0: 83.1% 8.0% 4.1% 1.9% 1.5% 1.0% 0.5%
x264 [info]: ref B L1: 95.7% 4.3%
x264 [info]: kb/s:1739.51

encoded 177120 frames, 16.15 fps, 1739.51 kb/s
GeneralComplete name : D:\Torrents\Warcraft.2016.BDRip.x264.960x.rip by Frost O.S.mp4Format : MPEG-4Format profile : Base MediaCodec ID : isom (isom/avc1/iso2)File size : 2.18 GiBDuration : 2 h 3 minOverall bit rate mode : VariableOverall bit rate : 2 534 kb/sMovie name : Warcraft 2016 BDRip x264 960x rip by Frost O SGenre : FantasyContentType : Short FilmEncoded date : UTC 2016-12-27 07:43:54Tagged date : UTC 2016-12-27 07:47:17Writing application : MkvToMp4 version: 0.224 (x64)Cover : YesComment : rip by Frost O.SLongDescription : Веками магия и неприступные стены защищали людей от любых напастей. Но древнее зло, побежденное и забытое тысячелетия назад, пробудилось. В самом сердце королевства открылся темный портал, и раса невиданных существ наводнила земли Азерота. Так начались события, призванные навсегда изменить судьбу этого мира.

VideoID : 1Format : AVCFormat/Info : Advanced Video CodecFormat profile : [email protected] settings, CABAC : YesFormat settings, ReFrames : 8 framesCodec ID : avc1Codec ID/Info : Advanced Video CodingDuration : 2 h 3 minBit rate : 1 740 kb/sMaximum bit rate : 6 357 kb/sWidth : 960 pixelsHeight : 394 pixelsDisplay aspect ratio : 2.40:1Frame rate mode : ConstantFrame rate : 23.976 (24000/1001) FPSOriginal frame rate : 23.976 (23976/1000) FPSColor space : YUVChroma subsampling : 4:2:0Bit depth : 8 bitsScan type : ProgressiveBits/(Pixel*Frame) : 0.192Stream size : 1.50 GiB (69%)Writing library : x264 core 148 r2705 3f5ed56Encoding settings : cabac=1 / ref=8 / deblock=1:0:0 / analyse=0x3:0x113 / me=umh / subme=11 / psy=1 / psy_rd=1.20:0.00 / mixed_ref=1 / me_range=32 / chroma_me=1 / trellis=2 / 8x8dct=1 / cqm=0 / deadzone=21,11 / fast_pskip=0 / chroma_qp_offset=-2 / threads=6 / lookahead_threads=1 / sliced_threads=0 / nr=0 / decimate=0 / interlaced=0 / bluray_compat=0 / constrained_intra=0 / bframes=9 / b_pyramid=2 / b_adapt=2 / b_bias=0 / direct=3 / weightb=1 / open_gop=0 / weightp=2 / keyint=250 / keyint_min=23 / scenecut=40 / intra_refresh=0 / rc=2pass / mbtree=0 / bitrate=1740 / ratetol=1.0 / qcomp=0.70 / qpmin=0 / qpmax=69 / qpstep=4 / cplxblur=20.0 / qblur=0.5 / ip_ratio=1.40 / pb_ratio=1.30 / aq=2:1.20Language : EnglishEncoded date : UTC 2016-12-27 07:43:54Tagged date : UTC 2016-12-27 07:44:49Color range : LimitedColor primaries : BT.709Transfer characteristics : BT.709Matrix coefficients : BT.709

Audio #1ID : 2Format : AACFormat/Info : Advanced Audio CodecFormat profile : LCCodec ID : 40Duration : 2 h 3 minBit rate mode : VariableBit rate : 128 kb/sMaximum bit rate : 135 kb/sChannel(s) : 2 channelsChannel positions : Front: L RSampling rate : 48.0 kHzFrame rate : 46.875 FPS (1024 spf)Compression mode : LossyStream size : 113 MiB (5%)Title : Dub_ _Licenziya_ / Dub_ _Licenziya_Language : RussianDefault : YesAlternate group : 1Encoded date : UTC 2016-12-27 07:44:13Tagged date : UTC 2016-12-27 07:44:49

Audio #2ID : 3Format : AACFormat/Info : Advanced Audio CodecFormat profile : LCCodec ID : 40Duration : 2 h 3 minBit rate mode : VariableBit rate : 128 kb/sMaximum bit rate : 135 kb/sChannel(s) : 2 channelsChannel positions : Front: L RSampling rate : 48.0 kHzFrame rate : 46.875 FPS (1024 spf)Compression mode : LossyStream size : 113 MiB (5%)Title : Dub / DubLanguage : UkrainianDefault : NoAlternate group : 1Encoded date : UTC 2016-12-27 07:44:23Tagged date : UTC 2016-12-27 07:44:49

Audio #3ID : 4Format : AACFormat/Info : Advanced Audio CodecFormat profile : LCCodec ID : 40Duration : 2 h 3 minBit rate mode : VariableBit rate : 128 kb/sMaximum bit rate : 135 kb/sChannel(s) : 2 channelsChannel positions : Front: L RSampling rate : 48.0 kHzFrame rate : 46.875 FPS (1024 spf)Compression mode : LossyStream size : 113 MiB (5%)Title : MVO_ FocusStudio / MVO_ FocusStudioLanguage : RussianDefault : NoAlternate group : 1Encoded date : UTC 2016-12-27 07:44:28Tagged date : UTC 2016-12-27 07:44:49

Audio #4ID : 5Format : AACFormat/Info : Advanced Audio CodecFormat profile : LCCodec ID : 40Duration : 2 h 3 minBit rate mode : VariableBit rate : 128 kb/sMaximum bit rate : 135 kb/sChannel(s) : 2 channelsChannel positions : Front: L RSampling rate : 48.0 kHzFrame rate : 46.875 FPS (1024 spf)Compression mode : LossyStream size : 113 MiB (5%)Title : [VO] Solod / [VO] SolodLanguage : RussianDefault : NoAlternate group : 1Encoded date : UTC 2016-12-27 07:44:30Tagged date : UTC 2016-12-27 07:44:49

Audio #5ID : 6Format : AACFormat/Info : Advanced Audio CodecFormat profile : LCCodec ID : 40Duration : 2 h 3 minBit rate mode : VariableBit rate : 128 kb/sMaximum bit rate : 135 kb/sChannel(s) : 2 channelsChannel positions : Front: L RSampling rate : 48.0 kHzFrame rate : 46.875 FPS (1024 spf)Compression mode : LossyStream size : 113 MiB (5%)Title : VO_ Zhuvov / VO_ ZhuvovLanguage : RussianDefault : NoAlternate group : 1Encoded date : UTC 2016-12-27 07:44:36Tagged date : UTC 2016-12-27 07:44:49

Audio #6ID : 7Format : AACFormat/Info : Advanced Audio CodecFormat profile : LCCodec ID : 40Duration : 2 h 3 minBit rate mode : VariableBit rate : 128 kb/sMaximum bit rate : 133 kb/sChannel(s) : 2 channelsChannel positions : Front: L RSampling rate : 48.0 kHzFrame rate : 46.875 FPS (1024 spf)Compression mode : LossyStream size : 113 MiB (5%)Title : Original / OriginalLanguage : EnglishDefault : NoAlternate group : 1Encoded date : UTC 2016-12-27 07:44:42Tagged date : UTC 2016-12-27 07:44:49

Text #1ID : 8Format : Timed TextMuxing mode : sbtlCodec ID : tx3gDuration : 1 h 53 minBit rate mode : VariableBit rate : 0 b/sStream size : 362 Bytes (0%)Title : Forced / ForcedLanguage : RussianDefault : YesForced : NoAlternate group : 2Encoded date : UTC 2016-12-27 07:44:49Tagged date : UTC 2016-12-27 07:44:49

Text #2ID : 9Format : Timed TextMuxing mode : sbtlCodec ID : tx3gDuration : 1 h 53 minBit rate mode : VariableBit rate : 63 b/sStream size : 52.2 KiB (0%)Title : Full / FullLanguage : RussianDefault : NoForced : NoAlternate group : 2Encoded date : UTC 2016-12-27 07:44:49Tagged date : UTC 2016-12-27 07:44:49

Text #3ID : 10Format : Timed TextMuxing mode : sbtlCodec ID : tx3gDuration : 1 h 53 minBit rate mode : VariableBit rate : 42 b/sStream size : 34.7 KiB (0%)Title : Original_ Full / Original_ FullLanguage : EnglishDefault : NoForced : NoAlternate group : 2Encoded date : UTC 2016-12-27 07:44:49Tagged date : UTC 2016-12-27 07:44:49

Text #4ID : 11Format : Timed TextMuxing mode : sbtlCodec ID : tx3gDuration : 1 h 53 minBit rate mode : VariableBit rate : 48 b/sStream size : 40.1 KiB (0%)Title : SDH / SDHLanguage : EnglishDefault : NoForced : NoAlternate group : 2Encoded date : UTC 2016-12-27 07:44:49Tagged date : UTC 2016-12-27 07:44:49


Трекер:  [ 27-Дек-2016 11:00 ]

  

Скачать .torrent

Размер .torrent файла 11 KB


Размер: 2.18 GB
Хэш (hash) релиза: 5a4633803da0063f7b8cc7e017a7a43786a7c96a

Торренты, похожие на [VIDEO] Варкрафт Warcraft скачать торрент

Форум Название Автор Размер S L Добавлен
Видео (Фильмы/Клипы) ·· [VIDEO] Варкрафт / Warcraft (Дункан Джонс / Duncan Jones) [2016, фэнтези, боевик, приключения, HDRip] [MP4, 480x] Dub Galfimbul 586603452559 MB 0 0 1482829880

12:11

27-Дек-16

Видео (Фильмы/Клипы) ·· [VIDEO] Варкрафт / Warcraft (Дункан Джонс / Duncan Jones) [2016, фэнтези, боевик, приключения, BDRip] [MP4, 1280x] Galfimbul 24495229202.28 GB 0 0 1478001683

15:01

1-Ноя-16

Еще никто не оставлял запись к записи скачать торрент [VIDEO] Варкрафт Warcraft . Будь первым!

!Обратная связь