A Dark Knight: One of My Three Soups
5.8 Lara Croft: Tomb Raider (2001)

Скачать через торрент [VIDEO] Ганновер-стрит Hanover Street бесплатно русская версия torrent активатор

Статистика раздачи
Размер:  1.17 GB   |    Зарегистрирован:  1 год 3 месяца   |    .torrent скачан:  14 раз   |   
Раздают:  1  
   
загрузка...
 
Автор Сообщение

Galfimbul

avatar Galfimbul


<span class="post-font-serif1">Ганновер-стрит / Hanover Street</span>

<span class="post-font-mono1">«The fateful entanglements of two men in love with the same woman»</span>
<span class="post-font-serif1">Год выпуска: 1979
Страна: Великобритания
Жанр: боевик, драма, мелодрама, приключения, военный
Продолжительность: 01:48:49
Перевод: Профессиональный (Многоголосый, закадровый) [VHS - ВидеоСервис]
Cубтитры: нет</span>
<span class="post-font-serif1">Режиссеры: Питер Хайамс / Peter Hyams</span>
<span class="post-font-serif1">В ролях: Харрисон Форд, Лесли-Энн Даун, Кристофер Пламмер, Алек МакКоуэн, Ричард Мейсер, Майкл Сакс, Пэтси Кензит, Макс Уолл, Шэйн Риммер, Кит Бакли, Шерри Хьюсон, Синди О’Каллаган, Ди Тревис, Джей Бенедикт, Джон Ратценбергер, Хью Фрейзер, Уильям Хуткинс, Кристин Ховарт, Лесли Уорд, Джордж Правда и другие .</span>
<span class="post-font-serif1">Описание: Отважный пилот Дэйвид Эллоран встречает прекрасную незнакомку, и в пекле страшной войны разгорается страсть влюбленных. Она замужем, но настоящее чувство не разбирает условностей. Однажды Дэйвид получает рискованное задание — доставить за линию фронта британского разведчика с суперсекретной и опасной миссией.

</span>
<span class="post-font-serif1">[b]Релиз группы
</span>
<span class="post-font-serif1">Качество:WEB-DLRip / [i]<a href="viewtopic.php?t=5024863" class="postLink">рип с WEB-DL 720p</a>
Формат: MP4
Видео кодек: H.264 Аудио кодек: AAC Видео: 960x408 AR: 2.35 1398 kbps 23.976 fps
Аудио: [Русский] 2ch 48 kHz 128 kbps [MVO] VHS - ВидеоСервис</span>
avs [info]: 960x408p 1:1 @ 2997/125 fps (cfr)
x264 [info]: using SAR=1/1
x264 [info]: using cpu capabilities: MMX2 SSE2Fast SSSE3 SSE4.2 AVX FMA3 AVX2 LZCNT BMI2
x264 [info]: profile High, level 4.1

x264 [info]: frame I:958 Avg QP:16.98 size: 50461
x264 [info]: frame P:40464 Avg QP:20.11 size: 14245
x264 [info]: frame B:115125 Avg QP:22.31 size: 4480
x264 [info]: consecutive B-frames: 2.0% 4.6% 6.9% 63.0% 10.0% 9.5% 1.6% 1.6% 0.7%
x264 [info]: mb I I16..4: 6.3% 77.7% 16.0%
x264 [info]: mb P I16..4: 1.2% 9.4% 1.3% P16..4: 36.3% 38.9% 9.6% 0.0% 0.0% skip: 3.3%
x264 [info]: mb B I16..4: 0.2% 1.2% 0.2% B16..8: 35.0% 17.2% 2.2% direct: 5.5% skip:38.5% L0:40.5% L1:47.1% BI:12.4%
x264 [info]: 8x8 transform intra:77.9% inter:61.5%
x264 [info]: direct mvs spatial:98.1% temporal:1.9%
x264 [info]: coded y,uvDC,uvAC intra: 80.3% 67.8% 31.7% inter: 22.6% 18.9% 5.2%
x264 [info]: i16 v,h,dc,p: 17% 15% 5% 63%
x264 [info]: i8 v,h,dc,ddl,ddr,vr,hd,vl,hu: 12% 7% 7% 9% 13% 13% 13% 12% 14%
x264 [info]: i4 v,h,dc,ddl,ddr,vr,hd,vl,hu: 15% 9% 5% 8% 13% 14% 13% 11% 13%
x264 [info]: i8c dc,h,v,p: 33% 31% 21% 16%
x264 [info]: Weighted P-Frames: Y:14.5% UV:7.1%
x264 [info]: ref P L0: 47.6% 9.7% 17.4% 5.9% 4.9% 3.7% 3.5% 1.9% 1.8% 1.6% 1.7% 0.3% 0.0%
x264 [info]: ref B L0: 79.8% 9.2% 3.8% 1.9% 1.4% 1.3% 1.1% 0.7% 0.5% 0.3%
x264 [info]: ref B L1: 96.3% 3.7%
x264 [info]: kb/s:1397.43

encoded 156547 frames, 16.59 fps, 1397.43 kb/s
GeneralComplete name : D:\Torrents\Hanover Street.1979.WEB-DLRip.x264.960x.rip by Frost O.S.mp4Format : MPEG-4Format profile : Base MediaCodec ID : isom (isom/avc1/iso2)File size : 1.17 GiBDuration : 1 h 48 minOverall bit rate mode : VariableOverall bit rate : 1 533 kb/sMovie name : Hanover Street 1979 WEB-DLRip x264 960x rip by Frost O SGenre : WarContentType : Short FilmEncoded date : UTC 2016-12-27 08:11:14Tagged date : UTC 2016-12-27 08:12:04Writing application : MkvToMp4 version: 0.224 (x64)Cover : YesComment : rip by Frost O.SLongDescription : Отважный пилот Дэйвид Эллоран встречает прекрасную незнакомку, и в пекле страшной войны разгорается страсть влюбленных. Она замужем, но настоящее чувство не разбирает условностей. Однажды Дэйвид получает рискованное задание — доставить за линию фронта британского разведчика с суперсекретной и опасной миссией. / Но его самолет сбивают, и двое оказываются на краю гибели. Положение осложняется тем, что Дэйвид вскоре понимает, кто находится рядом с ним — человек, с которым ему предстояло бороться за жизнь, оказывается мужем его возлюбленной…

VideoID : 1Format : AVCFormat/Info : Advanced Video CodecFormat profile : [email protected] settings, CABAC : YesFormat settings, ReFrames : 11 framesCodec ID : avc1Codec ID/Info : Advanced Video CodingDuration : 1 h 48 minBit rate : 1 398 kb/sMaximum bit rate : 5 043 kb/sWidth : 960 pixelsHeight : 408 pixelsDisplay aspect ratio : 2.35:1Frame rate mode : ConstantFrame rate : 23.976 (24000/1001) FPSOriginal frame rate : 23.976 (23976/1000) FPSColor space : YUVChroma subsampling : 4:2:0Bit depth : 8 bitsScan type : ProgressiveBits/(Pixel*Frame) : 0.149Stream size : 1.06 GiB (91%)Writing library : x264 core 148 r2705 3f5ed56Encoding settings : cabac=1 / ref=11 / deblock=1:-2:-2 / analyse=0x3:0x113 / me=umh / subme=11 / psy=1 / psy_rd=1.10:0.05 / mixed_ref=1 / me_range=32 / chroma_me=1 / trellis=2 / 8x8dct=1 / cqm=0 / deadzone=21,11 / fast_pskip=0 / chroma_qp_offset=-3 / threads=6 / lookahead_threads=1 / sliced_threads=0 / nr=0 / decimate=0 / interlaced=0 / bluray_compat=0 / constrained_intra=0 / bframes=8 / b_pyramid=2 / b_adapt=2 / b_bias=0 / direct=3 / weightb=1 / open_gop=0 / weightp=2 / keyint=250 / keyint_min=23 / scenecut=40 / intra_refresh=0 / rc=2pass / mbtree=0 / bitrate=1398 / ratetol=1.0 / qcomp=0.75 / qpmin=0 / qpmax=69 / qpstep=4 / cplxblur=20.0 / qblur=0.5 / ip_ratio=1.40 / pb_ratio=1.30 / aq=2:1.00Language : EnglishEncoded date : UTC 2016-12-27 08:11:14Tagged date : UTC 2016-12-27 08:11:32Color range : LimitedColor primaries : BT.709Transfer characteristics : BT.709Matrix coefficients : BT.709

AudioID : 2Format : AACFormat/Info : Advanced Audio CodecFormat profile : LCCodec ID : 40Duration : 1 h 48 minBit rate mode : VariableBit rate : 128 kb/sMaximum bit rate : 132 kb/sChannel(s) : 2 channelsChannel positions : Front: L RSampling rate : 48.0 kHzFrame rate : 46.875 FPS (1024 spf)Compression mode : LossyStream size : 99.6 MiB (8%)Title : MVO_ VHS _ VideoService / MVO_ VHS _ VideoServiceLanguage : RussianDefault : YesAlternate group : 1Encoded date : UTC 2016-12-27 08:11:30Tagged date : UTC 2016-12-27 08:11:32


Трекер:  [ 27-Дек-2016 10:30 ]

  

Скачать .torrent

Размер .torrent файла 12 KB


Размер: 1.17 GB
Хэш (hash) релиза: 90990324789bf9dfe3d23194754eca84555fdbd6

Торренты, похожие на [VIDEO] Ганновер-стрит Hanover Street скачать торрент

Форум Название Автор Размер S L Добавлен
Видео (Фильмы/Клипы) ·· [VIDEO] Ганновер-стрит / Hanover Street (Питер Хайамс / Peter Hyams) [1979, боевик, драма, мелодрама, приключения, военный, WEB-DLRip] [MP4, 480x] MVO VHS - ВидеоСервис Galfimbul 405140065386 MB 0 0 1451488765

18:19

30-Дек-15

Еще никто не оставлял запись к записи скачать торрент [VIDEO] Ганновер-стрит Hanover Street . Будь первым!

!Обратная связь