Download mp3 | Herbert Rudley | Watch movie

Скачать через торрент [MULT] Тайная жизнь домашних животных The Secret Life of Pets бесплатно русская версия torrent активатор

Статистика раздачи
Размер:  393 MB   |    Зарегистрирован:  1 год 6 месяцев   |    .torrent скачан:  27 раз   |   
Раздают:  1  
   
загрузка...
 
Автор Сообщение

Galfimbul

avatar Galfimbul


<span class="post-font-serif1">Тайная жизнь домашних животных / The Secret Life of Pets</span>

<span class="post-font-serif1">Год выпуска: 2016
Страна: Япония, США / Illumination Entertainment, Universal Pictures
Жанр: мультфильм, комедия, семейный
Продолжительность: 01:26:27
Перевод: русский Профессиональный (полное дублирование) BD CEE |Лицензия|
Cубтитры: нет</span>
<span class="post-font-serif1">Режиссеры: Ярроу Чейни / Yarrow Cheney, Крис Рено / Chris Renaud</span>
<span class="post-font-serif1">Роли озвучивали: Луис С.К. (Max), Эрик Стоунстрит (Duke), Кевин Харт (Snowball), Дженни Слейт (Gidget), Элли Кемпер (Katie), Альберт Брукс (Tiberius), Лэйк Белл (Chloe), Дэна Карви (Pops), Хэннибал Бёресс (Buddy), Бобби Мойнахан (Mel), Крис Рено (Norman), Стив Куган (Ozone / Reginald) и другие .</span>
<span class="post-font-serif1">Описание: Что делают домашние животные пока хозяева пропадают на работе? С тоской смотрят в окно? Смиренно дремлют на коврике у двери? Как бы не так. Они ведут свою тайную жизнь.</span>
<span class="post-font-serif1">Релиз группы </span>
<span class="post-font-serif1">Качество: HDRip / рип BDRip 720p
Формат: MP4
Видео кодек: XviD
Аудио кодек: AAC
Видео: 480x256 AR:1.85 499 kbps 23.976 fps
Аудио: [Russian] 2ch 48 kHz 128 kbps - [Dub] Профессиональный (полное дублирование) BD CEE |Лицензия|</span>
GeneralComplete name : D:\Torrents\The Secret Life of Pets.2016.HDRip.XviD.480x.rip by Frost O.S.mp4Format : MPEG-4Format profile : Base MediaCodec ID : isom (isom/iso2)File size : 393 MiBDuration : 1 h 26 minOverall bit rate mode : VariableOverall bit rate : 635 kb/sMovie name : The Secret Life of Pets 2016 HDRip XviD 480x rip by Frost O SGenre : AnimationContentType : Short FilmEncoded date : UTC 2016-12-26 06:54:50Tagged date : UTC 2016-12-26 06:55:15Writing application : MkvToMp4 version: 0.224 (x64)Cover : YesComment : rip by Frost O.SLongDescription : Что делают домашние животные пока хозяева пропадают на работе? С тоской смотрят в окно? Смиренно дремлют на коврике у двери? Как бы не так. Они ведут свою тайную жизнь.

VideoID : 1Format : MPEG-4 VisualFormat profile : Advanced [email protected] settings, BVOP : YesFormat settings, QPel : NoFormat settings, GMC : No warppointsFormat settings, Matrix : CustomCodec ID : 20Duration : 1 h 26 minBit rate mode : VariableBit rate : 499 kb/sMaximum bit rate : 194 Mb/sWidth : 480 pixelsHeight : 256 pixelsDisplay aspect ratio : 1.85:1Frame rate mode : VariableFrame rate : 23.976 (23976/1000) FPSMinimum frame rate : 11.988 FPSMaximum frame rate : 23.976 FPSColor space : YUVChroma subsampling : 4:2:0Bit depth : 8 bitsScan type : ProgressiveCompression mode : LossyBits/(Pixel*Frame) : 0.170Stream size : 309 MiB (79%)Title : avi_GPAC0.5.2_DEV_rev248_g39d5978_masterWriting library : XviD 1.2.1 (UTC 2008-12-04)Language : EnglishTagged date : UTC 2016-12-26 06:55:01

AudioID : 2Format : AACFormat/Info : Advanced Audio CodecFormat profile : LCCodec ID : 40Duration : 1 h 26 minBit rate mode : VariableBit rate : 128 kb/sMaximum bit rate : 135 kb/sChannel(s) : 2 channelsChannel positions : Front: L RSampling rate : 48.0 kHzFrame rate : 46.875 FPS (1024 spf)Compression mode : LossyStream size : 79.2 MiB (20%)Title : Dub_ BD CEE / Dub_ BD CEELanguage : RussianDefault : YesAlternate group : 1Encoded date : UTC 2016-12-26 06:54:59Tagged date : UTC 2016-12-26 06:55:01


Трекер:  [ 26-Дек-2016 12:00 ]

  

Скачать .torrent

Размер .torrent файла 16 KB


Размер: 393 MB
Хэш (hash) релиза: 7ef9e95cc85817e1284d833d6faa5ac712f3d2dc

Еще никто не оставлял запись к записи скачать торрент [MULT] Тайная жизнь домашних животных The Secret Life of Pets . Будь первым!

!Обратная связь