Ultraman X | The Bold Type: Season 2 | 3D Filme

Скачать через торрент [MULT] Аисты Storks бесплатно русская версия torrent активатор

Статистика раздачи
Размер:  1.26 GB   |    Зарегистрирован:  1 год 6 месяцев   |    .torrent скачан:  34 раза   |   
Раздают:  1  
   
загрузка...
 
Автор Сообщение

Galfimbul

avatar Galfimbul


<span class="post-font-serif1">Аисты / Storks</span>

<span class="post-font-serif1">Год выпуска: 2016
Страна: США
Жанр: мультфильм, фэнтези, комедия, приключения, семейный
Продолжительность: 01:26:57
Перевод №1: русский Профессиональный (полное дублирование) Blu-ray 3D NORDiC
Перевод №2: украинский Профессиональный (полное дублирование)
Оригинальная дорожка: Есть
Cубтитры: русские (Forced - iTunes, iTunes), английские (Full, SDH)</span>
<span class="post-font-serif1">Режиссеры: Николас Столлер / Nicholas Stoller, Даг Свитлэнд / Doug Sweetland</span>
<span class="post-font-serif1">Роли озвучивали: Энди Сэмберг, Кэти Краун, Келси Грэммер, Дженнифер Энистон, Тай Бурелл, Антон Старкман, Кигэн-Майкл Ки, Джордан Пил, Дэнни Трехо, Стив Гликман и другие .</span>
<span class="post-font-serif1">Описание: Аисты приносят детей... или, во всяком случае, раньше приносили. Теперь же они занимаются доставкой посылок для огромного сайта интернет-продаж. Джуниор, лучший аист в курьерской компании, должен пойти на повышение, но он случайно активирует машину для создания детей и получает очаровательную, но совершенно незапланированную девочку.
Пытаясь доставить эту «посылку» до того, как босс узнает о произошедшем, Джуниор и его подруга Лютик, единственный человек на Горе Аистов, решаются на свою первую доставку ребёнка и отправляются в безумное и насыщенное удивительными открытиями приключение, благодаря которому многие семьи могут стать полными, а аисты – вернуться к своей истинной миссии на Земле.</span>
<span class="post-font-serif1">Релиз группы </span>
<span class="post-font-serif1">Качество: BDRip / рип с BDRemux 1080p
Формат: MP4
Видео кодек: H.264
Аудио кодек: AAC
Видео: 960x402 AR:2.40 1675 kbps 23.976 fps
Аудио №1: [Russian] 2ch 48 kHz 128 kbps - [Dub] Профессиональный (полное дублирование) Blu-ray 3D NORDiC
Аудио №2: [Ukrainian] 2ch 48 kHz 128 kbps - [Dub] Профессиональный (полное дублирование)
Аудио №3: [English] 2ch 48 kHz 128 kbps - Оригинал</span>
avs [info]: 960x402p 1:1 @ 2997/125 fps (cfr)
x264 [info]: using SAR=1/1
x264 [info]: using cpu capabilities: MMX2 SSE2Fast SSSE3 SSE4.2 AVX FMA3 AVX2 LZCNT BMI2
x264 [info]: profile High, level 4.1

x264 [info]: frame I:1173 Avg QP:15.84 size: 52698
x264 [info]: frame P:34235 Avg QP:20.47 size: 17375
x264 [info]: frame B:89694 Avg QP:21.58 size: 4863
x264 [info]: consecutive B-frames: 8.1% 4.4% 8.5% 22.8% 18.8% 25.2% 5.2% 3.6% 1.5% 2.0%
x264 [info]: mb I I16..4: 5.0% 72.2% 22.8%
x264 [info]: mb P I16..4: 1.6% 11.4% 2.8% P16..4: 34.3% 35.3% 11.2% 0.0% 0.0% skip: 3.5%
x264 [info]: mb B I16..4: 0.2% 1.5% 0.3% B16..8: 34.5% 18.4% 2.6% direct: 3.5% skip:39.0% L0:43.7% L1:45.3% BI:11.1%
x264 [info]: 8x8 transform intra:72.6% inter:64.1%
x264 [info]: direct mvs spatial:96.4% temporal:3.6%
x264 [info]: coded y,uvDC,uvAC intra: 79.8% 82.5% 57.0% inter: 21.0% 19.6% 9.3%
x264 [info]: i16 v,h,dc,p: 17% 10% 5% 67%
x264 [info]: i8 v,h,dc,ddl,ddr,vr,hd,vl,hu: 14% 9% 6% 9% 13% 13% 14% 11% 13%
x264 [info]: i4 v,h,dc,ddl,ddr,vr,hd,vl,hu: 30% 7% 5% 7% 12% 11% 11% 8% 9%
x264 [info]: i8c dc,h,v,p: 29% 28% 22% 20%
x264 [info]: Weighted P-Frames: Y:12.5% UV:8.9%
x264 [info]: ref P L0: 51.8% 9.0% 18.7% 5.8% 4.8% 3.2% 2.8% 1.7% 1.7% 0.4% 0.0%
x264 [info]: ref B L0: 75.7% 10.9% 5.6% 2.8% 2.0% 1.6% 1.0% 0.4%
x264 [info]: ref B L1: 94.2% 5.8%
x264 [info]: kb/s:1675.47

encoded 125102 frames, 13.97 fps, 1675.47 kb/s
GeneralComplete name : D:\Torrents\Storks.2016.BDRip.x264.960x.rip by Frost O.S.mp4Format : MPEG-4Format profile : Base MediaCodec ID : isom (isom/avc1/iso2)File size : 1.26 GiBDuration : 1 h 26 minOverall bit rate mode : VariableOverall bit rate : 2 075 kb/sMovie name : Storks 2016 BDRip x264 960x rip by Frost O SGenre : AnimationContentType : Short FilmEncoded date : UTC 2016-12-26 07:18:07Tagged date : UTC 2016-12-26 07:20:11Writing application : MkvToMp4 version: 0.224 (x64)Cover : YesComment : rip by Frost O.SLongDescription : Аисты приносят детей... или, во всяком случае, раньше приносили. Теперь же они занимаются доставкой посылок для огромного сайта интернет-продаж. Джуниор, лучший аист в курьерской компании, должен пойти на повышение, но он случайно активирует машину для создания детей и получает очаровательную, но совершенно незапланированную девочку. Пытаясь доставить эту «посылку» до того, как босс узнает о произошедшем, Джуниор и его подруга Лютик, единственный человек на Горе Аистов, решаются на свою первую доставку ребёнка и отправляются в безумное и насыщенное удивительными открытиями приключение, благодаря которому многие семьи могут стать полными, а аисты – вернуться к своей истинной миссии на Земле.

VideoID : 1Format : AVCFormat/Info : Advanced Video CodecFormat profile : [email protected] settings, CABAC : YesFormat settings, ReFrames : 9 framesCodec ID : avc1Codec ID/Info : Advanced Video CodingDuration : 1 h 26 minBit rate : 1 675 kb/sMaximum bit rate : 6 136 kb/sWidth : 960 pixelsHeight : 402 pixelsDisplay aspect ratio : 2.40:1Frame rate mode : ConstantFrame rate : 23.976 (24000/1001) FPSOriginal frame rate : 23.976 (23976/1000) FPSColor space : YUVChroma subsampling : 4:2:0Bit depth : 8 bitsScan type : ProgressiveBits/(Pixel*Frame) : 0.181Stream size : 1.02 GiB (81%)Writing library : x264 core 148 r2705 3f5ed56Encoding settings : cabac=1 / ref=9 / deblock=1:-2:-2 / analyse=0x3:0x113 / me=umh / subme=11 / psy=1 / psy_rd=0.80:0.00 / mixed_ref=1 / me_range=32 / chroma_me=1 / trellis=2 / 8x8dct=1 / cqm=0 / deadzone=21,11 / fast_pskip=0 / chroma_qp_offset=-2 / threads=6 / lookahead_threads=1 / sliced_threads=0 / nr=0 / decimate=0 / interlaced=0 / bluray_compat=0 / constrained_intra=0 / bframes=9 / b_pyramid=2 / b_adapt=2 / b_bias=0 / direct=3 / weightb=1 / open_gop=0 / weightp=2 / keyint=250 / keyint_min=23 / scenecut=40 / intra_refresh=0 / rc=2pass / mbtree=0 / bitrate=1675 / ratetol=1.0 / qcomp=0.80 / qpmin=0 / qpmax=69 / qpstep=4 / cplxblur=20.0 / qblur=0.5 / ip_ratio=1.40 / pb_ratio=1.30 / aq=2:1.00Language : EnglishEncoded date : UTC 2016-12-26 07:18:07Tagged date : UTC 2016-12-26 07:18:41Color range : LimitedColor primaries : BT.709Transfer characteristics : BT.709Matrix coefficients : BT.709

Audio #1ID : 2Format : AACFormat/Info : Advanced Audio CodecFormat profile : LCCodec ID : 40Duration : 1 h 26 minBit rate mode : VariableBit rate : 128 kb/sMaximum bit rate : 135 kb/sChannel(s) : 2 channelsChannel positions : Front: L RSampling rate : 48.0 kHzFrame rate : 46.875 FPS (1024 spf)Compression mode : LossyStream size : 79.6 MiB (6%)Title : Blu_ray 3D NORDiC / Blu_ray 3D NORDiCLanguage : RussianDefault : YesAlternate group : 1Encoded date : UTC 2016-12-26 07:18:23Tagged date : UTC 2016-12-26 07:18:41

Audio #2ID : 3Format : AACFormat/Info : Advanced Audio CodecFormat profile : LCCodec ID : 40Duration : 1 h 26 minBit rate mode : VariableBit rate : 128 kb/sMaximum bit rate : 135 kb/sChannel(s) : 2 channelsChannel positions : Front: L RSampling rate : 48.0 kHzFrame rate : 46.875 FPS (1024 spf)Compression mode : LossyStream size : 79.6 MiB (6%)Title : Dub / DubLanguage : UkrainianDefault : NoAlternate group : 1Encoded date : UTC 2016-12-26 07:18:31Tagged date : UTC 2016-12-26 07:18:41

Audio #3ID : 4Format : AACFormat/Info : Advanced Audio CodecFormat profile : LCCodec ID : 40Duration : 1 h 26 minBit rate mode : VariableBit rate : 128 kb/sMaximum bit rate : 135 kb/sChannel(s) : 2 channelsChannel positions : Front: L RSampling rate : 48.0 kHzFrame rate : 46.875 FPS (1024 spf)Compression mode : LossyStream size : 79.6 MiB (6%)Title : Original / OriginalLanguage : EnglishDefault : NoAlternate group : 1Encoded date : UTC 2016-12-26 07:18:35Tagged date : UTC 2016-12-26 07:18:41

Text #1ID : 5Format : Timed TextMuxing mode : sbtlCodec ID : tx3gDuration : 1 h 15 minBit rate mode : VariableBit rate : 2 b/sStream size : 1.16 KiB (0%)Title : Forced_ iTunes / Forced_ iTunesLanguage : RussianDefault : YesForced : NoAlternate group : 2Encoded date : UTC 2016-12-26 07:18:41Tagged date : UTC 2016-12-26 07:18:41

Text #2ID : 6Format : Timed TextMuxing mode : sbtlCodec ID : tx3gDuration : 1 h 21 minBit rate mode : VariableBit rate : 122 b/sStream size : 72.8 KiB (0%)Title : iTunes / iTunesLanguage : RussianDefault : NoForced : NoAlternate group : 2Encoded date : UTC 2016-12-26 07:18:41Tagged date : UTC 2016-12-26 07:18:41

Text #3ID : 7Format : Timed TextMuxing mode : sbtlCodec ID : tx3gDuration : 1 h 21 minBit rate mode : VariableBit rate : 80 b/sStream size : 47.6 KiB (0%)Title : Full / FullLanguage : EnglishDefault : NoForced : NoAlternate group : 2Encoded date : UTC 2016-12-26 07:18:41Tagged date : UTC 2016-12-26 07:18:41

Text #4ID : 8Format : Timed TextMuxing mode : sbtlCodec ID : tx3gDuration : 1 h 22 minBit rate mode : VariableBit rate : 92 b/sStream size : 55.8 KiB (0%)Title : SDH / SDHLanguage : EnglishDefault : NoForced : NoAlternate group : 2Encoded date : UTC 2016-12-26 07:18:41Tagged date : UTC 2016-12-26 07:18:41


Трекер:  [ 26-Дек-2016 12:00 ]

  

Скачать .torrent

Размер .torrent файла 13 KB


Размер: 1.26 GB
Хэш (hash) релиза: 892de1a4fb706a67d60716ba6062a312ce3eac92

Еще никто не оставлял запись к записи скачать торрент [MULT] Аисты Storks . Будь первым!

!Обратная связь