Next → | La Momie | Shooter Season 3 Episode 4

Скачать через торрент [MULT] Аисты Storks бесплатно русская версия torrent активатор

Статистика раздачи
Размер:  395 MB   |    Зарегистрирован:  1 год 6 месяцев   |    .torrent скачан:  25 раз   |   
Раздают:  1  
   
загрузка...
 
Автор Сообщение

Galfimbul

avatar Galfimbul


<span class="post-font-serif1">Аисты / Storks</span>

<span class="post-font-serif1">Год выпуска: 2016
Страна: США
Жанр: мультфильм, фэнтези, комедия, приключения, семейный
Продолжительность: 01:26:57
Перевод: русский Профессиональный (полное дублирование) Blu-ray 3D NORDiC
Cубтитры: нет</span>
<span class="post-font-serif1">Режиссеры: Николас Столлер / Nicholas Stoller, Даг Свитлэнд / Doug Sweetland</span>
<span class="post-font-serif1">Роли озвучивали: Энди Сэмберг, Кэти Краун, Келси Грэммер, Дженнифер Энистон, Тай Бурелл, Антон Старкман, Кигэн-Майкл Ки, Джордан Пил, Дэнни Трехо, Стив Гликман и другие .</span>
<span class="post-font-serif1">Описание: Аисты приносят детей... или, во всяком случае, раньше приносили. Теперь же они занимаются доставкой посылок для огромного сайта интернет-продаж. Джуниор, лучший аист в курьерской компании, должен пойти на повышение, но он случайно активирует машину для создания детей и получает очаровательную, но совершенно незапланированную девочку.
Пытаясь доставить эту «посылку» до того, как босс узнает о произошедшем, Джуниор и его подруга Лютик, единственный человек на Горе Аистов, решаются на свою первую доставку ребёнка и отправляются в безумное и насыщенное удивительными открытиями приключение, благодаря которому многие семьи могут стать полными, а аисты – вернуться к своей истинной миссии на Земле.</span>
<span class="post-font-serif1">Релиз группы </span>
<span class="post-font-serif1">Качество: HDRip / рип с BDRip 720p
Формат: MP4
Видео кодек: XviD
Аудио кодек: AAC
Видео: 480x200 AR:2.40 499 kbps 23.976 fps
Аудио: [Russian] 2ch 48 kHz 128 kbps - [Dub] Профессиональный (полное дублирование) Blu-ray 3D NORDiC</span>
GeneralComplete name : D:\Torrents\Storks.2016.HDRip.XviD.480x.rip by Frost O.S.mp4Format : MPEG-4Format profile : Base MediaCodec ID : isom (isom/iso2)File size : 395 MiBDuration : 1 h 26 minOverall bit rate mode : VariableOverall bit rate : 635 kb/sMovie name : Storks 2016 HDRip XviD 480x rip by Frost O SGenre : AnimationContentType : Short FilmEncoded date : UTC 2016-12-26 07:23:10Tagged date : UTC 2016-12-26 07:23:30Writing application : MkvToMp4 version: 0.224 (x64)Cover : YesComment : rip by Frost O.SLongDescription : Аисты приносят детей... или, во всяком случае, раньше приносили. Теперь же они занимаются доставкой посылок для огромного сайта интернет-продаж. Джуниор, лучший аист в курьерской компании, должен пойти на повышение, но он случайно активирует машину для создания детей и получает очаровательную, но совершенно незапланированную девочку. Пытаясь доставить эту «посылку» до того, как босс узнает о произошедшем, Джуниор и его подруга Лютик, единственный человек на Горе Аистов, решаются на свою первую доставку ребёнка и отправляются в безумное и насыщенное удивительными открытиями приключение, благодаря которому многие семьи могут стать полными, а аисты – вернуться к своей истинной миссии на Земле.

VideoID : 1Format : MPEG-4 VisualFormat profile : Advanced [email protected] settings, BVOP : YesFormat settings, QPel : NoFormat settings, GMC : No warppointsFormat settings, Matrix : CustomCodec ID : 20Duration : 1 h 26 minBit rate mode : VariableBit rate : 499 kb/sMaximum bit rate : 2 715 kb/sWidth : 480 pixelsHeight : 200 pixelsDisplay aspect ratio : 2.40:1Frame rate mode : ConstantFrame rate : 23.976 (24000/1001) FPSOriginal frame rate : 23.976 (23976/1000) FPSColor space : YUVChroma subsampling : 4:2:0Bit depth : 8 bitsScan type : ProgressiveCompression mode : LossyBits/(Pixel*Frame) : 0.217Stream size : 310 MiB (79%)Title : avi_GPAC0.5.2_DEV_rev248_g39d5978_masterWriting library : XviD 1.2.1 (UTC 2008-12-04)Language : EnglishTagged date : UTC 2016-12-26 07:23:17

AudioID : 2Format : AACFormat/Info : Advanced Audio CodecFormat profile : LCCodec ID : 40Duration : 1 h 26 minBit rate mode : VariableBit rate : 128 kb/sMaximum bit rate : 135 kb/sChannel(s) : 2 channelsChannel positions : Front: L RSampling rate : 48.0 kHzFrame rate : 46.875 FPS (1024 spf)Compression mode : LossyStream size : 79.6 MiB (20%)Title : Dub_ Blu_ray 3D NORDiC / Dub_ Blu_ray 3D NORDiCLanguage : RussianDefault : YesAlternate group : 1Encoded date : UTC 2016-12-26 07:23:15Tagged date : UTC 2016-12-26 07:23:17


Трекер:  [ 26-Дек-2016 12:00 ]

  

Скачать .torrent

Размер .torrent файла 16 KB


Размер: 395 MB
Хэш (hash) релиза: 349814b50f6c3b23c11341b1efe5239059447dfa

Еще никто не оставлял запись к записи скачать торрент [MULT] Аисты Storks . Будь первым!

!Обратная связь