Do No Harm | LÎle aux chiens | Lovestore at the Corner

Скачать через торрент [VIDEO] Чудо на Гудзоне Sully бесплатно русская версия torrent активатор

Статистика раздачи
Размер:  985 MB   |    Зарегистрирован:  1 год 6 месяцев   |    .torrent скачан:  24 раза   |   
Раздают:  1  
   
загрузка...
 
Автор Сообщение

Galfimbul

avatar Galfimbul


<span class="post-font-serif1">Чудо на Гудзоне / Sully</span>

<span class="post-font-serif1">Год выпуска: 2016
Страна: США / Warner Bros. Pictures
Жанр: драма, биография
Продолжительность: 01:35:51
Перевод №1: русский Профессиональный (полное дублирование) BD CEE |Лицензия|
Перевод №2: украинский Профессиональный (полное дублирование) iTunes
Оригинальная дорожка: Есть
Cубтитры: русские (Forced iTunes, iTunes), украинские (Forced iTunes), английские (Full, SDH)</span>
<span class="post-font-serif1">Режиссер: Клинт Иствуд / Clint Eastwood</span>
<span class="post-font-serif1">В ролях: Том Хэнкс, Аарон Экхарт, Валери Махаффей, Делфи Хэррингтон, Майк О`Мэлли, Джейми Шеридан, Анна Ганн, Холт МакКэллани, Ахмед Хуссэйн, Лора Линни и другие .</span>
<span class="post-font-serif1">Описание: Произошедшее 15 января 2009 года назовут «Чудом на Гудзоне». В тот день капитан рейса 1549 Чесли Салленбергер совершил аварийную посадку самолета A320 на холодные воды реки Гудзон в Нью-Йорке. При этом никто из находившихся на борту 155 человек не пострадал. Но, несмотря на все почести со стороны общественности и СМИ, было начато расследование, которое угрожало профессиональной репутации и многолетней карьере капитана Салли..</span>
<span class="post-font-serif1">Релиз группы </span>
<span class="post-font-serif1">Качество: HDRip / рип с BDRip 720p
Формат: MP4
Видео кодек: H.264
Аудио кодек: AAC
Видео: 960x402 AR:2.40 1037 kbps 23.976 fps
Аудио №1: [Russian] 2ch 48 kHz 128 kbps - [Dub] Профессиональный (полное дублирование) BD CEE |Лицензия|
Аудио №2: [Ukrainian] 2ch 48 kHz 128 kbps - [Dub] Профессиональный (полное дублирование) iTunes
Аудио №3: [English] 2ch 48 kHz 128 kbps - Оригинал</span>
avs [info]: 960x402p 1:1 @ 2997/125 fps (cfr)
x264 [info]: using SAR=1/1
x264 [info]: using cpu capabilities: MMX2 SSE2Fast SSSE3 SSE4.2 AVX FMA3 AVX2 LZCNT BMI2
x264 [info]: profile High, level 4.1

x264 [info]: frame I:1373 Avg QP:15.50 size: 52289
x264 [info]: frame P:31909 Avg QP:19.95 size: 12521
x264 [info]: frame B:104596 Avg QP:22.92 size: 2620
x264 [info]: consecutive B-frames: 2.9% 3.9% 10.2% 21.8% 18.2% 31.3% 5.7% 6.0%
x264 [info]: mb I I16..4: 13.3% 58.1% 28.6%
x264 [info]: mb P I16..4: 0.9% 6.6% 1.7% P16..4: 32.4% 34.0% 10.0% 0.0% 0.0% skip:14.3%
x264 [info]: mb B I16..4: 0.1% 0.8% 0.2% B16..8: 31.7% 11.1% 1.4% direct: 1.7% skip:53.1% L0:40.4% L1:47.4% BI:12.2%
x264 [info]: 8x8 transform intra:67.7% inter:62.4%
x264 [info]: direct mvs spatial:95.6% temporal:4.4%
x264 [info]: coded y,uvDC,uvAC intra: 76.0% 57.7% 27.4% inter: 11.9% 6.4% 2.5%
x264 [info]: i16 v,h,dc,p: 29% 13% 4% 54%
x264 [info]: i8 v,h,dc,ddl,ddr,vr,hd,vl,hu: 14% 9% 5% 9% 12% 12% 14% 11% 14%
x264 [info]: i4 v,h,dc,ddl,ddr,vr,hd,vl,hu: 27% 9% 5% 7% 11% 11% 11% 9% 11%
x264 [info]: i8c dc,h,v,p: 27% 37% 22% 13%
x264 [info]: Weighted P-Frames: Y:3.9% UV:1.0%
x264 [info]: ref P L0: 57.9% 12.1% 14.0% 5.5% 3.9% 3.5% 3.0% 0.1% 0.0%
x264 [info]: ref B L0: 84.5% 8.0% 4.2% 1.8% 1.1% 0.4%
x264 [info]: ref B L1: 95.7% 4.3%
x264 [info]: kb/s:1036.95

encoded 137878 frames, 21.97 fps, 1036.95 kb/s
GeneralComplete name : D:\Torrents\Sully.2016.HDRip.x264.960x.rip by Frost O.S.mp4Format : MPEG-4Format profile : Base MediaCodec ID : isom (isom/avc1/iso2)File size : 985 MiBDuration : 1 h 35 minOverall bit rate mode : VariableOverall bit rate : 1 436 kb/sMovie name : Sully 2016 HDRip x264 960x rip by Frost O SGenre : DramaContentType : Short FilmEncoded date : UTC 2016-12-26 07:44:44Tagged date : UTC 2016-12-26 07:46:11Writing application : MkvToMp4 version: 0.224 (x64)Cover : YesComment : rip by Frost O.SLongDescription : Произошедшее 15 января 2009 года назовут «Чудом на Гудзоне». В тот день капитан рейса 1549 Чесли Салленбергер совершил аварийную посадку самолета A320 на холодные воды реки Гудзон в Нью-Йорке. При этом никто из находившихся на борту 155 человек не пострадал. Но, несмотря на все почести со стороны общественности и СМИ, было начато расследование, которое угрожало профессиональной репутации и многолетней карьере капитана Салли..

VideoID : 1Format : AVCFormat/Info : Advanced Video CodecFormat profile : [email protected] settings, CABAC : YesFormat settings, ReFrames : 7 framesCodec ID : avc1Codec ID/Info : Advanced Video CodingDuration : 1 h 35 minBit rate : 1 037 kb/sMaximum bit rate : 6 063 kb/sWidth : 960 pixelsHeight : 402 pixelsDisplay aspect ratio : 2.40:1Frame rate mode : ConstantFrame rate : 23.976 (24000/1001) FPSOriginal frame rate : 23.976 (23976/1000) FPSColor space : YUVChroma subsampling : 4:2:0Bit depth : 8 bitsScan type : ProgressiveBits/(Pixel*Frame) : 0.112Stream size : 711 MiB (72%)Writing library : x264 core 148 r2705 3f5ed56Encoding settings : cabac=1 / ref=7 / deblock=1:-2:-2 / analyse=0x3:0x113 / me=umh / subme=11 / psy=1 / psy_rd=1.00:0.00 / mixed_ref=1 / me_range=32 / chroma_me=1 / trellis=2 / 8x8dct=1 / cqm=0 / deadzone=21,11 / fast_pskip=0 / chroma_qp_offset=-2 / threads=6 / lookahead_threads=1 / sliced_threads=0 / nr=0 / decimate=0 / interlaced=0 / bluray_compat=0 / constrained_intra=0 / bframes=7 / b_pyramid=2 / b_adapt=2 / b_bias=0 / direct=3 / weightb=1 / open_gop=0 / weightp=2 / keyint=250 / keyint_min=23 / scenecut=40 / intra_refresh=0 / rc_lookahead=40 / rc=2pass / mbtree=1 / bitrate=1037 / ratetol=1.0 / qcomp=0.60 / qpmin=0 / qpmax=69 / qpstep=4 / cplxblur=20.0 / qblur=0.5 / ip_ratio=1.40 / aq=1:0.80Language : EnglishEncoded date : UTC 2016-12-26 07:44:44Tagged date : UTC 2016-12-26 07:45:18Color range : LimitedColor primaries : BT.709Transfer characteristics : BT.709Matrix coefficients : BT.709

Audio #1ID : 2Format : AACFormat/Info : Advanced Audio CodecFormat profile : LCCodec ID : 40Duration : 1 h 35 minBit rate mode : VariableBit rate : 128 kb/sMaximum bit rate : 135 kb/sChannel(s) : 2 channelsChannel positions : Front: L RSampling rate : 48.0 kHzFrame rate : 46.875 FPS (1024 spf)Compression mode : LossyStream size : 87.7 MiB (9%)Title : BD CEE / BD CEELanguage : RussianDefault : YesAlternate group : 1Encoded date : UTC 2016-12-26 07:44:57Tagged date : UTC 2016-12-26 07:45:18

Audio #2ID : 3Format : AACFormat/Info : Advanced Audio CodecFormat profile : LCCodec ID : 40Duration : 1 h 35 minBit rate mode : VariableBit rate : 128 kb/sMaximum bit rate : 140 kb/sChannel(s) : 2 channelsChannel positions : Front: L RSampling rate : 44.1 kHzFrame rate : 43.066 FPS (1024 spf)Compression mode : LossyStream size : 87.8 MiB (9%)Title : iTunes / iTunesLanguage : UkrainianDefault : NoAlternate group : 1Encoded date : UTC 2016-12-26 07:45:06Tagged date : UTC 2016-12-26 07:45:18

Audio #3ID : 4Format : AACFormat/Info : Advanced Audio CodecFormat profile : LCCodec ID : 40Duration : 1 h 35 minBit rate mode : VariableBit rate : 128 kb/sMaximum bit rate : 135 kb/sChannel(s) : 2 channelsChannel positions : Front: L RSampling rate : 48.0 kHzFrame rate : 46.875 FPS (1024 spf)Compression mode : LossyStream size : 87.7 MiB (9%)Title : Original / OriginalLanguage : EnglishDefault : NoAlternate group : 1Encoded date : UTC 2016-12-26 07:45:11Tagged date : UTC 2016-12-26 07:45:18

Text #1ID : 5Format : Timed TextMuxing mode : sbtlCodec ID : tx3gDuration : 1 h 32 minBit rate mode : VariableBit rate : 4 b/sStream size : 2.90 KiB (0%)Title : Forced_ iTunes / Forced_ iTunesLanguage : RussianDefault : YesForced : NoAlternate group : 2Encoded date : UTC 2016-12-26 07:45:18Tagged date : UTC 2016-12-26 07:45:18

Text #2ID : 6Format : Timed TextMuxing mode : sbtlCodec ID : tx3gDuration : 1 h 32 minBit rate mode : VariableBit rate : 123 b/sStream size : 83.0 KiB (0%)Title : iTunes / iTunesLanguage : RussianDefault : NoForced : NoAlternate group : 2Encoded date : UTC 2016-12-26 07:45:18Tagged date : UTC 2016-12-26 07:45:18

Text #3ID : 7Format : Timed TextMuxing mode : sbtlCodec ID : tx3gDuration : 1 h 28 minBit rate mode : VariableBit rate : 3 b/sStream size : 1.78 KiB (0%)Title : Forced_ iTunes / Forced_ iTunesLanguage : UkrainianDefault : NoForced : NoAlternate group : 2Encoded date : UTC 2016-12-26 07:45:18Tagged date : UTC 2016-12-26 07:45:18

Text #4ID : 8Format : Timed TextMuxing mode : sbtlCodec ID : tx3gDuration : 1 h 32 minBit rate mode : VariableBit rate : 80 b/sStream size : 53.8 KiB (0%)Title : Full / FullLanguage : EnglishDefault : NoForced : NoAlternate group : 2Encoded date : UTC 2016-12-26 07:45:18Tagged date : UTC 2016-12-26 07:45:18

Text #5ID : 9Format : Timed TextMuxing mode : sbtlCodec ID : tx3gDuration : 1 h 32 minBit rate mode : VariableBit rate : 88 b/sStream size : 59.3 KiB (0%)Title : SDH / SDHLanguage : EnglishDefault : NoForced : NoAlternate group : 2Encoded date : UTC 2016-12-26 07:45:18Tagged date : UTC 2016-12-26 07:45:18


Трекер:  [ 26-Дек-2016 11:30 ]

  

Скачать .torrent

Размер .torrent файла 19 KB


Размер: 985 MB
Хэш (hash) релиза: ec8b4f0d46f7a7c4e62ad82c8dba01612026dffe

Торренты, похожие на [VIDEO] Чудо на Гудзоне Sully скачать торрент

Форум Название Автор Размер S L Добавлен
Видео (Фильмы/Клипы) ·· [VIDEO] Чудо на Гудзоне / Sully (Клинт Иствуд / Clint Eastwood) [2016, драма, биография, BDRip] [MP4, 1280x] Galfimbul 19251417631.79 GB 0 0 1485248794

12:06

24-Янв-17

Видео (Фильмы/Клипы) ·· [VIDEO] Чудо на Гудзоне / Sully (Клинт Иствуд / Clint Eastwood) [2016, драма, биография, HDRip] [MP4, 480x] Dub Galfimbul 369311848352 MB 0 0 1482744822

12:33

26-Дек-16

Еще никто не оставлял запись к записи скачать торрент [VIDEO] Чудо на Гудзоне Sully . Будь первым!

!Обратная связь