Watch movie | Eps48 Teen Titans Go! - Season 4 | Film BDRip 480p

Скачать через торрент [VIDEO] Чудо на Гудзоне Sully бесплатно русская версия torrent активатор

Статистика раздачи
Размер:  352 MB   |    Зарегистрирован:  1 год 6 месяцев   |    .torrent скачан:  26 раз   |   
Раздают:  1  
   
загрузка...
 
Автор Сообщение

Galfimbul

avatar Galfimbul


<span class="post-font-serif1">Чудо на Гудзоне / Sully</span>

<span class="post-font-serif1">Год выпуска: 2016
Страна: США / Warner Bros. Pictures
Жанр: драма, биография
Продолжительность: 01:35:50
Перевод: русский Профессиональный (полное дублирование) BD CEE |Лицензия|
Cубтитры: нет</span>
<span class="post-font-serif1">Режиссер: Клинт Иствуд / Clint Eastwood</span>
<span class="post-font-serif1">В ролях: Том Хэнкс, Аарон Экхарт, Валери Махаффей, Делфи Хэррингтон, Майк О`Мэлли, Джейми Шеридан, Анна Ганн, Холт МакКэллани, Ахмед Хуссэйн, Лора Линни и другие .</span>
<span class="post-font-serif1">Описание: Произошедшее 15 января 2009 года назовут «Чудом на Гудзоне». В тот день капитан рейса 1549 Чесли Салленбергер совершил аварийную посадку самолета A320 на холодные воды реки Гудзон в Нью-Йорке. При этом никто из находившихся на борту 155 человек не пострадал. Но, несмотря на все почести со стороны общественности и СМИ, было начато расследование, которое угрожало профессиональной репутации и многолетней карьере капитана Салли..</span>
<span class="post-font-serif1">Релиз группы </span>
<span class="post-font-serif1">Качество: HDRip / рип с BDRip 720p
Формат: MP4
Видео кодек: XviD
Аудио кодек: AAC
Видео: 480x200 AR:2.40 378 kbps 23.976 fps
Аудио: [Russian] 2ch 48 kHz 128 kbps - [Dub] Профессиональный (полное дублирование) BD CEE |Лицензия|</span>
GeneralComplete name : D:\Torrents\Sully.2016.HDRip.XviD.480x.rip by Frost O.S.mp4Format : MPEG-4Format profile : Base MediaCodec ID : isom (isom/iso2)File size : 352 MiBDuration : 1 h 35 minOverall bit rate mode : VariableOverall bit rate : 514 kb/sMovie name : Sully 2016 HDRip XviD 480x rip by Frost O SGenre : DramaContentType : Short FilmEncoded date : UTC 2016-12-26 07:49:12Tagged date : UTC 2016-12-26 07:49:30Writing application : MkvToMp4 version: 0.224 (x64)Cover : YesComment : rip by Frost O.SLongDescription : Произошедшее 15 января 2009 года назовут «Чудом на Гудзоне». В тот день капитан рейса 1549 Чесли Салленбергер совершил аварийную посадку самолета A320 на холодные воды реки Гудзон в Нью-Йорке. При этом никто из находившихся на борту 155 человек не пострадал. Но, несмотря на все почести со стороны общественности и СМИ, было начато расследование, которое угрожало профессиональной репутации и многолетней карьере капитана Салли..

VideoID : 1Format : MPEG-4 VisualFormat profile : Advanced [email protected] settings, BVOP : YesFormat settings, QPel : NoFormat settings, GMC : No warppointsFormat settings, Matrix : CustomCodec ID : 20Duration : 1 h 35 minBit rate mode : VariableBit rate : 378 kb/sMaximum bit rate : 194 Mb/sWidth : 480 pixelsHeight : 200 pixelsDisplay aspect ratio : 2.40:1Frame rate mode : VariableFrame rate : 23.976 (23976/1000) FPSMinimum frame rate : 11.988 FPSMaximum frame rate : 23.976 FPSColor space : YUVChroma subsampling : 4:2:0Bit depth : 8 bitsScan type : ProgressiveCompression mode : LossyBits/(Pixel*Frame) : 0.164Stream size : 259 MiB (74%)Title : avi_GPAC0.5.2_DEV_rev248_g39d5978_masterWriting library : XviD 1.2.1 (UTC 2008-12-04)Language : EnglishTagged date : UTC 2016-12-26 07:49:16

AudioID : 2Format : AACFormat/Info : Advanced Audio CodecFormat profile : LCCodec ID : 40Duration : 1 h 35 minBit rate mode : VariableBit rate : 128 kb/sMaximum bit rate : 135 kb/sChannel(s) : 2 channelsChannel positions : Front: L RSampling rate : 48.0 kHzFrame rate : 46.875 FPS (1024 spf)Compression mode : LossyStream size : 87.7 MiB (25%)Title : Dub_ BD CEE / Dub_ BD CEELanguage : RussianDefault : YesAlternate group : 1Encoded date : UTC 2016-12-26 07:49:14Tagged date : UTC 2016-12-26 07:49:16


Трекер:  [ 26-Дек-2016 11:30 ]

  

Скачать .torrent

Размер .torrent файла 14 KB


Размер: 352 MB
Хэш (hash) релиза: 8247c2b9d788b922000a9b136603fbd16380c293

Торренты, похожие на [VIDEO] Чудо на Гудзоне Sully скачать торрент

Форум Название Автор Размер S L Добавлен
Видео (Фильмы/Клипы) ·· [VIDEO] Чудо на Гудзоне / Sully (Клинт Иствуд / Clint Eastwood) [2016, драма, биография, BDRip] [MP4, 1280x] Galfimbul 19251417631.79 GB 0 0 1485248794

12:06

24-Янв-17

Видео (Фильмы/Клипы) ·· [VIDEO] Чудо на Гудзоне / Sully (Клинт Иствуд / Clint Eastwood) [2016, драма, биография, HDRip] [MP4, 960x] Dub (Rus, Ukr), Original, Sub (rus, ukr, eng) Galfimbul 1032343341985 MB 0 0 1482744826

12:33

26-Дек-16

Еще никто не оставлял запись к записи скачать торрент [VIDEO] Чудо на Гудзоне Sully . Будь первым!

!Обратная связь