Next → | La Momie | Shooter Season 3 Episode 4

Скачать через торрент [VIDEO] Отмель The Shallows бесплатно русская версия torrent активатор

Статистика раздачи
Размер:  1.29 GB   |    Зарегистрирован:  1 год 6 месяцев   |    .torrent скачан:  30 раз   |   
Раздают:  1  
   
загрузка...
 
Автор Сообщение

Galfimbul

avatar Galfimbul


<span class="post-font-serif1">Отмель / The Shallows</span>

<span class="post-font-serif1">Год выпуска: 2016
Страна: США / Columbia Pictures
Жанр: ужасы, триллер, драма
Продолжительность: 01:26:16
Перевод №1: русский Профессиональный (полное дублирование) BD CEE |Лицензия|
Перевод №2: украинский Профессиональный (полное дублирование) iTunes
Оригинальная дорожка: Есть
Cубтитры: русские (Forced iTunes, iTunes), английские (Full, iTunes)</span>
<span class="post-font-serif1">Режиссер: Хауме Кольет-Серра / Jaume Collet-Serra</span>
<span class="post-font-serif1">В ролях: Блейк Лайвли (Nancy), Оскар Хаэнада (Carlos), Анджело Джосу Лозаньо Корзо (Surfer 1), Бретт Каллен (Dad), Седона Ледже (Chloe), Пабло Кальва (Boy), Диего Эспехель (Intoxicated Man), Джанелл Бэйли (Mom), Ава Дин (Young Nancy), Челси Муди (Young Mom), Салли Сигалл (Seagull) и другие .</span>
<span class="post-font-serif1">Описание: Бескрайний океан, безлюдный пляж и идеальная погода для серфингистов в поисках хорошей волны. Казалось бы, ничто не предвещает беды для очаровательной любительницы серфинга в одиночку. Разве что свидание тет-а-тет с гигантской акулой, которая загонит спортсменку на песчаную отмель и не отступит до тех пор, пока не получит своё.</span>
<span class="post-font-serif1">Релиз группы </span>
<span class="post-font-serif1">Качество: BDRip / рип с BDRemux 1080p
Формат: MP4
Видео кодек: H.264
Аудио кодек: AAC
Видео: 960x402 AR:2.40 1740 kbps 23.976 fps
Аудио №1: [Russian] 2ch 48 kHz 128 kbps - [Dub] Профессиональный (полное дублирование) BD EUR |Лицензия|
Аудио №2: [Ukrainian] 2ch 48 kHz 128 kbps - [Dub] Профессиональный (полное дублирование) iTunes
Аудио №3: [English] 2ch 48 kHz 128 kbps - Оригинал</span>
avs [info]: 960x402p 1:1 @ 2997/125 fps (cfr)
x264 [info]: using SAR=1/1
x264 [info]: using cpu capabilities: MMX2 SSE2Fast SSSE3 SSE4.2 AVX FMA3 AVX2 LZCNT BMI2
x264 [info]: profile High, level 4.1

x264 [info]: frame I:828 Avg QP:20.95 size: 34599
x264 [info]: frame P:34907 Avg QP:24.94 size: 14359
x264 [info]: frame B:88369 Avg QP:27.22 size: 6747
x264 [info]: consecutive B-frames: 4.4% 5.1% 11.3% 54.0% 13.0% 9.8% 1.1% 0.8% 0.3% 0.1%
x264 [info]: mb I I16..4: 12.1% 68.5% 19.3%
x264 [info]: mb P I16..4: 3.6% 18.3% 3.3% P16..4: 29.6% 29.3% 6.6% 0.0% 0.0% skip: 9.3%
x264 [info]: mb B I16..4: 0.6% 3.9% 0.5% B16..8: 34.6% 17.8% 3.3% direct: 4.7% skip:34.6% L0:44.0% L1:46.6% BI: 9.3%
x264 [info]: 8x8 transform intra:74.2% inter:68.2%
x264 [info]: direct mvs spatial:93.2% temporal:6.8%
x264 [info]: coded y,uvDC,uvAC intra: 76.8% 58.8% 23.8% inter: 24.9% 14.2% 3.0%
x264 [info]: i16 v,h,dc,p: 6% 40% 2% 52%
x264 [info]: i8 v,h,dc,ddl,ddr,vr,hd,vl,hu: 4% 8% 3% 9% 15% 12% 20% 10% 18%
x264 [info]: i4 v,h,dc,ddl,ddr,vr,hd,vl,hu: 14% 12% 4% 7% 12% 11% 16% 8% 16%
x264 [info]: i8c dc,h,v,p: 29% 37% 15% 18%
x264 [info]: Weighted P-Frames: Y:14.7% UV:9.1%
x264 [info]: ref P L0: 51.4% 11.2% 15.0% 6.2% 4.6% 4.0% 3.2% 2.0% 2.0% 0.4% 0.0%
x264 [info]: ref B L0: 81.1% 7.4% 3.9% 2.0% 2.3% 1.4% 1.4% 0.4%
x264 [info]: ref B L1: 96.9% 3.1%
x264 [info]: kb/s:1740.36

encoded 124104 frames, 14.77 fps, 1740.36 kb/s
GeneralComplete name : D:\Torrents\The Shallows.2016.BDRip.x264.960x.rip by Frost O.S.mp4Format : MPEG-4Format profile : Base MediaCodec ID : isom (isom/avc1/iso2)File size : 1.29 GiBDuration : 1 h 26 minOverall bit rate mode : VariableOverall bit rate : 2 140 kb/sMovie name : The Shallows 2016 BDRip x264 960x rip by Frost O SGenre : HorrorContentType : Short FilmEncoded date : UTC 2016-12-23 16:10:15Tagged date : UTC 2016-12-23 16:12:11Writing application : MkvToMp4 version: 0.224 (x64)Cover : YesComment : rip by Frost O.S

VideoID : 1Format : AVCFormat/Info : Advanced Video CodecFormat profile : [email protected] settings, CABAC : YesFormat settings, ReFrames : 9 framesCodec ID : avc1Codec ID/Info : Advanced Video CodingDuration : 1 h 26 minBit rate : 1 740 kb/sMaximum bit rate : 7 810 kb/sWidth : 960 pixelsHeight : 402 pixelsDisplay aspect ratio : 2.40:1Frame rate mode : ConstantFrame rate : 23.976 (24000/1001) FPSOriginal frame rate : 23.976 (23976/1000) FPSColor space : YUVChroma subsampling : 4:2:0Bit depth : 8 bitsScan type : ProgressiveBits/(Pixel*Frame) : 0.188Stream size : 1.05 GiB (81%)Writing library : x264 core 148 r2705 3f5ed56Encoding settings : cabac=1 / ref=9 / deblock=1:-1:-1 / analyse=0x3:0x113 / me=umh / subme=11 / psy=1 / psy_rd=1.15:0.00 / mixed_ref=1 / me_range=32 / chroma_me=1 / trellis=2 / 8x8dct=1 / cqm=0 / deadzone=21,11 / fast_pskip=0 / chroma_qp_offset=-2 / threads=6 / lookahead_threads=1 / sliced_threads=0 / nr=0 / decimate=0 / interlaced=0 / bluray_compat=0 / constrained_intra=0 / bframes=9 / b_pyramid=2 / b_adapt=2 / b_bias=0 / direct=3 / weightb=1 / open_gop=0 / weightp=2 / keyint=250 / keyint_min=23 / scenecut=40 / intra_refresh=0 / rc=2pass / mbtree=0 / bitrate=1740 / ratetol=1.0 / qcomp=0.60 / qpmin=0 / qpmax=69 / qpstep=4 / cplxblur=20.0 / qblur=0.5 / ip_ratio=1.40 / pb_ratio=1.30 / aq=2:1.10Language : EnglishEncoded date : UTC 2016-12-23 16:10:15Tagged date : UTC 2016-12-23 16:11:03Color range : LimitedColor primaries : BT.709Transfer characteristics : BT.709Matrix coefficients : BT.709

Audio #1ID : 2Format : AACFormat/Info : Advanced Audio CodecFormat profile : LCCodec ID : 40Duration : 1 h 26 minBit rate mode : VariableBit rate : 128 kb/sMaximum bit rate : 135 kb/sChannel(s) : 2 channelsChannel positions : Front: L RSampling rate : 48.0 kHzFrame rate : 46.875 FPS (1024 spf)Compression mode : LossyStream size : 79.0 MiB (6%)Title : DUB_ Blu_ray EUR / DUB_ Blu_ray EURLanguage : RussianDefault : YesAlternate group : 1Encoded date : UTC 2016-12-23 16:10:43Tagged date : UTC 2016-12-23 16:11:03

Audio #2ID : 3Format : AACFormat/Info : Advanced Audio CodecFormat profile : LCCodec ID : 40Duration : 1 h 26 minBit rate mode : VariableBit rate : 128 kb/sMaximum bit rate : 136 kb/sChannel(s) : 2 channelsChannel positions : Front: L RSampling rate : 44.1 kHzFrame rate : 43.066 FPS (1024 spf)Compression mode : LossyStream size : 79.0 MiB (6%)Title : DUB_ iTunes / DUB_ iTunesLanguage : UkrainianDefault : NoAlternate group : 1Encoded date : UTC 2016-12-23 16:10:52Tagged date : UTC 2016-12-23 16:11:03

Audio #3ID : 4Format : AACFormat/Info : Advanced Audio CodecFormat profile : LCCodec ID : 40Duration : 1 h 26 minBit rate mode : VariableBit rate : 128 kb/sMaximum bit rate : 135 kb/sChannel(s) : 2 channelsChannel positions : Front: L RSampling rate : 48.0 kHzFrame rate : 46.875 FPS (1024 spf)Compression mode : LossyStream size : 79.0 MiB (6%)Title : Original / OriginalLanguage : EnglishDefault : NoAlternate group : 1Encoded date : UTC 2016-12-23 16:10:57Tagged date : UTC 2016-12-23 16:11:03

Text #1ID : 5Format : Timed TextMuxing mode : sbtlCodec ID : tx3gDuration : 1 h 21 minBit rate mode : VariableBit rate : 2 b/sStream size : 1.14 KiB (0%)Title : Forced_ iTunes / Forced_ iTunesLanguage : RussianDefault : YesForced : NoAlternate group : 2Encoded date : UTC 2016-12-23 16:11:03Tagged date : UTC 2016-12-23 16:11:03

Text #2ID : 6Format : Timed TextMuxing mode : sbtlCodec ID : tx3gDuration : 1 h 21 minBit rate mode : VariableBit rate : 30 b/sStream size : 17.6 KiB (0%)Title : iTunes / iTunesLanguage : RussianDefault : NoForced : NoAlternate group : 2Encoded date : UTC 2016-12-23 16:11:03Tagged date : UTC 2016-12-23 16:11:03

Text #3ID : 7Format : Timed TextMuxing mode : sbtlCodec ID : tx3gDuration : 8 min 0 sBit rate mode : VariableBit rate : 4 b/sStream size : 252 Bytes (0%)Title : Forced_ iTunes / Forced_ iTunesLanguage : EnglishDefault : NoForced : NoAlternate group : 2Encoded date : UTC 2016-12-23 16:11:03Tagged date : UTC 2016-12-23 16:11:03

Text #4ID : 8Format : Timed TextMuxing mode : sbtlCodec ID : tx3gDuration : 1 h 20 minBit rate mode : VariableBit rate : 20 b/sStream size : 12.0 KiB (0%)Title : iTunes / iTunesLanguage : EnglishDefault : NoForced : NoAlternate group : 2Encoded date : UTC 2016-12-23 16:11:03Tagged date : UTC 2016-12-23 16:11:03

Text #5ID : 9Format : Timed TextMuxing mode : sbtlCodec ID : tx3gDuration : 1 h 21 minBit rate mode : VariableBit rate : 24 b/sStream size : 14.2 KiB (0%)Title : Full / FullLanguage : EnglishDefault : NoForced : NoAlternate group : 2Encoded date : UTC 2016-12-23 16:11:03Tagged date : UTC 2016-12-23 16:11:03

Text #6ID : 10Format : Timed TextMuxing mode : sbtlCodec ID : tx3gDuration : 1 h 26 minBit rate mode : VariableBit rate : 33 b/sStream size : 20.8 KiB (0%)Title : SDH / SDHLanguage : EnglishDefault : NoForced : NoAlternate group : 2Encoded date : UTC 2016-12-23 16:11:03Tagged date : UTC 2016-12-23 16:11:03


Трекер:  [ 26-Дек-2016 11:30 ]

  

Скачать .torrent

Размер .torrent файла 13 KB


Размер: 1.29 GB
Хэш (hash) релиза: 67bc55fd9e52ef43157eb3c197bc78a427f2f36b

Торренты, похожие на [VIDEO] Отмель The Shallows скачать торрент

Форум Название Автор Размер S L Добавлен
Видео (Фильмы/Клипы) ·· [VIDEO] Отмель / The Shallows (Хауме Кольет-Серра / Jaume Collet-Serra) [2016, ужасы, триллер, драма, HDRip] [MP4, 480x] Dub Galfimbul 404145748385 MB 0 0 1482744814

12:33

26-Дек-16

Еще никто не оставлял запись к записи скачать торрент [VIDEO] Отмель The Shallows . Будь первым!

!Обратная связь