Practical Performance Car – July 2018 | The Raven | Trace Adkins

Скачать через торрент [VIDEO] Отмель The Shallows бесплатно русская версия torrent активатор

Статистика раздачи
Размер:  385 MB   |    Зарегистрирован:  1 год 6 месяцев   |    .torrent скачан:  22 раза   |   
Раздают:  1  
   
загрузка...
 
Автор Сообщение

Galfimbul

avatar Galfimbul


<span class="post-font-serif1">Отмель / The Shallows</span>

<span class="post-font-serif1">Год выпуска: 2016
Страна: США / Columbia Pictures
Жанр: ужасы, триллер, драма
Продолжительность: 01:26:16
Перевод: русский Профессиональный (полное дублирование) BD CEE |Лицензия|
Cубтитры: нет</span>
<span class="post-font-serif1">Режиссер: Хауме Кольет-Серра / Jaume Collet-Serra</span>
<span class="post-font-serif1">В ролях: Блейк Лайвли (Nancy), Оскар Хаэнада (Carlos), Анджело Джосу Лозаньо Корзо (Surfer 1), Бретт Каллен (Dad), Седона Ледже (Chloe), Пабло Кальва (Boy), Диего Эспехель (Intoxicated Man), Джанелл Бэйли (Mom), Ава Дин (Young Nancy), Челси Муди (Young Mom), Салли Сигалл (Seagull) и другие .</span>
<span class="post-font-serif1">Описание: Бескрайний океан, безлюдный пляж и идеальная погода для серфингистов в поисках хорошей волны. Казалось бы, ничто не предвещает беды для очаровательной любительницы серфинга в одиночку. Разве что свидание тет-а-тет с гигантской акулой, которая загонит спортсменку на песчаную отмель и не отступит до тех пор, пока не получит своё.</span>
<span class="post-font-serif1">Релиз группы </span>
<span class="post-font-serif1">Качество: HDRip / рип с BDRip 720p
Формат: MP4
Видео кодек: XviD
Аудио кодек: AAC
Видео: 480x200 AR:2.40 489 kbps 23.976 fps
Аудио: [Russian] 2ch 48 kHz 128 kbps - [Dub] Профессиональный (полное дублирование) BD EUR |Лицензия|</span>
GeneralComplete name : D:\Torrents\The Shallows.2016.HDRip.XviD.480x.rip by Frost O.S.mp4Format : MPEG-4Format profile : Base MediaCodec ID : isom (isom/iso2)File size : 385 MiBDuration : 1 h 26 minOverall bit rate mode : VariableOverall bit rate : 625 kb/sMovie name : The Shallows 2016 HDRip XviD 480x rip by Frost O SGenre : HorrorContentType : Short FilmEncoded date : UTC 2016-12-23 16:15:26Tagged date : UTC 2016-12-23 16:15:49Writing application : MkvToMp4 version: 0.224 (x64)Cover : YesComment : rip by Frost O.S

VideoID : 1Format : MPEG-4 VisualFormat profile : Advanced [email protected] settings, BVOP : YesFormat settings, QPel : NoFormat settings, GMC : No warppointsFormat settings, Matrix : CustomCodec ID : 20Duration : 1 h 26 minBit rate mode : VariableBit rate : 489 kb/sMaximum bit rate : 2 713 kb/sWidth : 480 pixelsHeight : 200 pixelsDisplay aspect ratio : 2.40:1Frame rate mode : ConstantFrame rate : 23.976 (24000/1001) FPSOriginal frame rate : 23.976 (23976/1000) FPSColor space : YUVChroma subsampling : 4:2:0Bit depth : 8 bitsScan type : ProgressiveCompression mode : LossyBits/(Pixel*Frame) : 0.212Stream size : 302 MiB (78%)Title : avi_GPAC0.5.2_DEV_rev248_g39d5978_masterWriting library : XviD 1.2.1 (UTC 2008-12-04)Language : EnglishTagged date : UTC 2016-12-23 16:15:33

AudioID : 2Format : AACFormat/Info : Advanced Audio CodecFormat profile : LCCodec ID : 40Duration : 1 h 26 minBit rate mode : VariableBit rate : 128 kb/sMaximum bit rate : 135 kb/sChannel(s) : 2 channelsChannel positions : Front: L RSampling rate : 48.0 kHzFrame rate : 46.875 FPS (1024 spf)Compression mode : LossyStream size : 79.0 MiB (20%)Title : DUB_ Blu_ray EUR / DUB_ Blu_ray EURLanguage : RussianDefault : YesAlternate group : 1Encoded date : UTC 2016-12-23 16:15:32Tagged date : UTC 2016-12-23 16:15:33


Трекер:  [ 26-Дек-2016 11:30 ]

  

Скачать .torrent

Размер .torrent файла 15 KB


Размер: 385 MB
Хэш (hash) релиза: cf98226060d717b3e7ae88b0fde265e3f550b441

Торренты, похожие на [VIDEO] Отмель The Shallows скачать торрент

Форум Название Автор Размер S L Добавлен
Видео (Фильмы/Клипы) ·· [VIDEO] Отмель / The Shallows (Хауме Кольет-Серра / Jaume Collet-Serra) [2016, ужасы, триллер, драма, BDRip] [MP4, 960x] Dub (Rus, Ukr), Original, Sub (rus, ukr, eng) Galfimbul 13843695011.29 GB 0 0 1482744818

12:33

26-Дек-16

Еще никто не оставлял запись к записи скачать торрент [VIDEO] Отмель The Shallows . Будь первым!

!Обратная связь