Pretty Little Liars | DVD Sid and Nancy (1986) | Caza Al Terrorista

Скачать через торрент [MULT] Тайная жизнь домашних животных The Secret Life of Pets бесплатно русская версия torrent активатор

Статистика раздачи
Размер:  1.29 GB   |    Зарегистрирован:  1 год 6 месяцев   |    .torrent скачан:  30 раз   |   
Раздают:  1  
   
загрузка...
 
Автор Сообщение

Galfimbul

avatar Galfimbul


<span class="post-font-serif1">Тайная жизнь домашних животных / The Secret Life of Pets</span>

<span class="post-font-serif1">Год выпуска: 2016
Страна: Япония, США / Illumination Entertainment, Universal Pictures
Жанр: мультфильм, комедия, семейный
Продолжительность: 01:26:27
Перевод №1: русский Профессиональный (полное дублирование) BD CEE |Лицензия|
Перевод №2: украинский Профессиональный (полное дублирование)
Оригинальная дорожка: Есть
Cубтитры: русские (Forced - BD CEE, Full - BD CEE), украинские (Forced - BD Baltic, Full - BD Baltic), английские (Full, Full-SDH, Full-SDH - Colored)</span>
<span class="post-font-serif1">Режиссеры: Ярроу Чейни / Yarrow Cheney, Крис Рено / Chris Renaud</span>
<span class="post-font-serif1">Роли озвучивали: Луис С.К. (Max), Эрик Стоунстрит (Duke), Кевин Харт (Snowball), Дженни Слейт (Gidget), Элли Кемпер (Katie), Альберт Брукс (Tiberius), Лэйк Белл (Chloe), Дэна Карви (Pops), Хэннибал Бёресс (Buddy), Бобби Мойнахан (Mel), Крис Рено (Norman), Стив Куган (Ozone / Reginald) и другие .</span>
<span class="post-font-serif1">Описание: Что делают домашние животные пока хозяева пропадают на работе? С тоской смотрят в окно? Смиренно дремлют на коврике у двери? Как бы не так. Они ведут свою тайную жизнь.</span>
<span class="post-font-serif1">Релиз группы </span>
<span class="post-font-serif1">Качество: BDRip / рип с BDRemux 1080p
Формат: MP4
Видео кодек: H.264
Аудио кодек: AAC
Видео: 960x520 AR:1.85 1740 kbps 23.976 fps
Аудио №1: [Russian] 2ch 48 kHz 128 kbps - [Dub] Профессиональный (полное дублирование) BD CEE |Лицензия|
Аудио №2: [Ukrainian] 2ch 48 kHz 128 kbps - [Dub] Профессиональный (полное дублирование)
Аудио №3: [English] 2ch 48 kHz 128 kbps - Оригинал</span>
avs [info]: 960x520p 1:1 @ 2997/125 fps (cfr)
x264 [info]: using SAR=1/1
x264 [info]: using cpu capabilities: MMX2 SSE2Fast SSSE3 SSE4.2 AVX FMA3 AVX2 LZCNT BMI2
x264 [info]: profile High, level 4.1

x264 [info]: frame I:1095 Avg QP:16.33 size: 77572
x264 [info]: frame P:33967 Avg QP:20.89 size: 16340
x264 [info]: frame B:89306 Avg QP:23.44 size: 5460
x264 [info]: consecutive B-frames: 4.6% 6.0% 16.5% 32.1% 14.3% 20.2% 2.9% 3.4%
x264 [info]: mb I I16..4: 8.5% 64.4% 27.1%
x264 [info]: mb P I16..4: 1.9% 12.0% 2.2% P16..4: 29.3% 26.3% 8.0% 0.0% 0.0% skip:20.3%
x264 [info]: mb B I16..4: 0.3% 2.3% 0.4% B16..8: 24.3% 11.8% 2.2% direct: 2.7% skip:56.2% L0:41.3% L1:44.5% BI:14.2%
x264 [info]: 8x8 transform intra:74.4% inter:66.3%
x264 [info]: direct mvs spatial:95.2% temporal:4.8%
x264 [info]: coded y,uvDC,uvAC intra: 80.2% 78.9% 49.8% inter: 14.9% 12.8% 5.8%
x264 [info]: i16 v,h,dc,p: 14% 20% 3% 64%
x264 [info]: i8 v,h,dc,ddl,ddr,vr,hd,vl,hu: 12% 12% 4% 8% 12% 12% 13% 12% 15%
x264 [info]: i4 v,h,dc,ddl,ddr,vr,hd,vl,hu: 15% 15% 5% 7% 13% 12% 13% 8% 12%
x264 [info]: i8c dc,h,v,p: 28% 31% 20% 21%
x264 [info]: Weighted P-Frames: Y:3.1% UV:1.5%
x264 [info]: ref P L0: 55.3% 11.6% 13.3% 5.6% 4.4% 4.0% 3.2% 2.3% 0.2% 0.0%
x264 [info]: ref B L0: 78.6% 9.0% 5.0% 2.6% 2.7% 1.5% 0.6%
x264 [info]: ref B L1: 95.5% 4.5%
x264 [info]: kb/s:1738.95

encoded 124368 frames, 14.95 fps, 1738.95 kb/s
GeneralComplete name : D:\Torrents\The Secret Life of Pets.2016.BDRip.x264.960x.rip by Frost O.S.mp4Format : MPEG-4Format profile : Base MediaCodec ID : isom (isom/avc1/iso2)File size : 1.29 GiBDuration : 1 h 26 minOverall bit rate mode : VariableOverall bit rate : 2 139 kb/sMovie name : The Secret Life of Pets 2016 BDRip x264 960x rip by Frost O SGenre : AnimationContentType : Short FilmEncoded date : UTC 2016-12-26 06:50:03Tagged date : UTC 2016-12-26 06:51:40Writing application : MkvToMp4 version: 0.224 (x64)Cover : YesComment : rip by Frost O.SLongDescription : Что делают домашние животные пока хозяева пропадают на работе? С тоской смотрят в окно? Смиренно дремлют на коврике у двери? Как бы не так. Они ведут свою тайную жизнь.

VideoID : 1Format : AVCFormat/Info : Advanced Video CodecFormat profile : [email protected] settings, CABAC : YesFormat settings, ReFrames : 8 framesCodec ID : avc1Codec ID/Info : Advanced Video CodingDuration : 1 h 26 minBit rate : 1 740 kb/sMaximum bit rate : 10.1 Mb/sWidth : 960 pixelsHeight : 520 pixelsDisplay aspect ratio : 1.85:1Frame rate mode : ConstantFrame rate : 23.976 (24000/1001) FPSOriginal frame rate : 23.976 (23976/1000) FPSColor space : YUVChroma subsampling : 4:2:0Bit depth : 8 bitsScan type : ProgressiveBits/(Pixel*Frame) : 0.145Stream size : 1.05 GiB (81%)Writing library : x264 core 148 r2705 3f5ed56Encoding settings : cabac=1 / ref=8 / deblock=1:-1:-1 / analyse=0x3:0x113 / me=umh / subme=11 / psy=1 / psy_rd=0.80:0.00 / mixed_ref=1 / me_range=32 / chroma_me=1 / trellis=2 / 8x8dct=1 / cqm=0 / deadzone=21,11 / fast_pskip=0 / chroma_qp_offset=-2 / threads=6 / lookahead_threads=1 / sliced_threads=0 / nr=0 / decimate=0 / interlaced=0 / bluray_compat=0 / constrained_intra=0 / bframes=7 / b_pyramid=2 / b_adapt=2 / b_bias=0 / direct=3 / weightb=1 / open_gop=0 / weightp=2 / keyint=250 / keyint_min=23 / scenecut=40 / intra_refresh=0 / rc_lookahead=60 / rc=2pass / mbtree=1 / bitrate=1740 / ratetol=1.0 / qcomp=0.75 / qpmin=0 / qpmax=69 / qpstep=4 / cplxblur=20.0 / qblur=0.5 / ip_ratio=1.40 / aq=1:1.00Language : EnglishEncoded date : UTC 2016-12-26 06:50:03Tagged date : UTC 2016-12-26 06:50:42Color range : LimitedColor primaries : BT.709Transfer characteristics : BT.709Matrix coefficients : BT.709

Audio #1ID : 2Format : AACFormat/Info : Advanced Audio CodecFormat profile : LCCodec ID : 40Duration : 1 h 26 minBit rate mode : VariableBit rate : 128 kb/sMaximum bit rate : 135 kb/sChannel(s) : 2 channelsChannel positions : Front: L RSampling rate : 48.0 kHzFrame rate : 46.875 FPS (1024 spf)Compression mode : LossyStream size : 79.2 MiB (6%)Title : Dub _ BD CEE / Dub _ BD CEELanguage : RussianDefault : YesAlternate group : 1Encoded date : UTC 2016-12-26 06:50:21Tagged date : UTC 2016-12-26 06:50:42

Audio #2ID : 3Format : AACFormat/Info : Advanced Audio CodecFormat profile : LCCodec ID : 40Duration : 1 h 26 minBit rate mode : VariableBit rate : 128 kb/sMaximum bit rate : 135 kb/sChannel(s) : 2 channelsChannel positions : Front: L RSampling rate : 48.0 kHzFrame rate : 46.875 FPS (1024 spf)Compression mode : LossyStream size : 79.2 MiB (6%)Title : Dub / DubLanguage : UkrainianDefault : NoAlternate group : 1Encoded date : UTC 2016-12-26 06:50:32Tagged date : UTC 2016-12-26 06:50:42

Audio #3ID : 4Format : AACFormat/Info : Advanced Audio CodecFormat profile : LCCodec ID : 40Duration : 1 h 26 minBit rate mode : VariableBit rate : 128 kb/sMaximum bit rate : 135 kb/sChannel(s) : 2 channelsChannel positions : Front: L RSampling rate : 48.0 kHzFrame rate : 46.875 FPS (1024 spf)Compression mode : LossyStream size : 79.2 MiB (6%)Title : Original / OriginalLanguage : EnglishDefault : NoAlternate group : 1Encoded date : UTC 2016-12-26 06:50:37Tagged date : UTC 2016-12-26 06:50:42

Text #1ID : 5Format : Timed TextMuxing mode : sbtlCodec ID : tx3gDuration : 1 h 14 minBit rate mode : VariableBit rate : 1 b/sStream size : 709 Bytes (0%)Title : Forced _ BD CEE / Forced _ BD CEELanguage : RussianDefault : YesForced : NoAlternate group : 2Encoded date : UTC 2016-12-26 06:50:41Tagged date : UTC 2016-12-26 06:50:42

Text #2ID : 6Format : Timed TextMuxing mode : sbtlCodec ID : tx3gDuration : 1 h 26 minBit rate mode : VariableBit rate : 72 b/sStream size : 45.8 KiB (0%)Title : Full _ BD CEE / Full _ BD CEELanguage : RussianDefault : NoForced : NoAlternate group : 2Encoded date : UTC 2016-12-26 06:50:41Tagged date : UTC 2016-12-26 06:50:42

Text #3ID : 7Format : Timed TextMuxing mode : sbtlCodec ID : tx3gDuration : 1 h 26 minBit rate mode : VariableBit rate : 1 b/sStream size : 870 Bytes (0%)Title : Ukr Forced [BD Baltic] / Ukr Forced [BD Baltic]Language : UkrainianDefault : NoForced : NoAlternate group : 2Encoded date : UTC 2016-12-26 06:50:41Tagged date : UTC 2016-12-26 06:50:42

Text #4ID : 8Format : Timed TextMuxing mode : sbtlCodec ID : tx3gDuration : 1 h 26 minBit rate mode : VariableBit rate : 72 b/sStream size : 45.7 KiB (0%)Title : Ukr Full [BD Baltic] / Ukr Full [BD Baltic]Language : UkrainianDefault : NoForced : NoAlternate group : 2Encoded date : UTC 2016-12-26 06:50:41Tagged date : UTC 2016-12-26 06:50:42

Text #5ID : 9Format : Timed TextMuxing mode : sbtlCodec ID : tx3gDuration : 1 h 26 minBit rate mode : VariableBit rate : 59 b/sStream size : 37.5 KiB (0%)Title : Full / FullLanguage : EnglishDefault : NoForced : NoAlternate group : 2Encoded date : UTC 2016-12-26 06:50:41Tagged date : UTC 2016-12-26 06:50:42

Text #6ID : 10Format : Timed TextMuxing mode : sbtlCodec ID : tx3gDuration : 1 h 26 minBit rate mode : VariableBit rate : 94 b/sStream size : 59.6 KiB (0%)Title : Full_SDH / Full_SDHLanguage : EnglishDefault : NoForced : NoAlternate group : 2Encoded date : UTC 2016-12-26 06:50:41Tagged date : UTC 2016-12-26 06:50:42

Text #7ID : 11Format : Timed TextMuxing mode : sbtlCodec ID : tx3gDuration : 1 h 26 minBit rate mode : VariableBit rate : 101 b/sStream size : 63.7 KiB (0%)Title : Full_SDH _ Colored / Full_SDH _ ColoredLanguage : EnglishDefault : NoForced : NoAlternate group : 2Encoded date : UTC 2016-12-26 06:50:42Tagged date : UTC 2016-12-26 06:50:42


Трекер:  [ 26-Дек-2016 11:30 ]

  

Скачать .torrent

Размер .torrent файла 13 KB


Размер: 1.29 GB
Хэш (hash) релиза: 8f84e345ad045bd96a0df9b4fe044dbd6b5b4af0

Еще никто не оставлял запись к записи скачать торрент [MULT] Тайная жизнь домашних животных The Secret Life of Pets . Будь первым!

!Обратная связь