Diese TV-Sendung hier kostenlos aufnehmen | Ookami to Koushinryou | Reign (season 4)

Скачать через торрент [VIDEO] Хитмэн: Агент 47 Hitman: Agent 47 бесплатно русская версия torrent активатор

Статистика раздачи
Размер:  932 MB   |    Зарегистрирован:  1 год 7 месяцев   |    .torrent скачан:  37 раз   |   
Раздают:  1  
   
загрузка...
 
Автор Сообщение

Galfimbul

avatar Galfimbul


<span class="post-font-serif1">Хитмэн: Агент 47 / Hitman: Agent 47</span>

<span class="post-font-serif1">Год выпуска: 2015
Страна: США, Германия, Великобритания
Жанр: боевик, фантастика, триллер
Продолжительность: 01:36:16
Перевод: русский Профессиональный (полное дублирование) [Лицензия BD CEE]
Cубтитры: нет</span>
<span class="post-font-serif1">Режиссер: Александр Бах / Aleksander Bach</span>
<span class="post-font-serif1">В ролях: Руперт Френд, Ханна Уэр, Закари Куинто, Киран Хайндс, Томас Кречман, Анджела Бейби, Дэн Баккедаль, Шарлин Бек, Михаэль Борнхюттер, Мелисса Бротон, Нильс Брункхорст, Михаэлла Каспар и другие .</span>
<span class="post-font-serif1">Описание: История об элитном убийце, созданном при помощи генной инженерии, который объединяется с женщиной, чтобы помочь ей найти отца и раскрыть тайну своего происхождения.</span>
<span class="post-font-serif1">Релиз группы </span>
<span class="post-font-serif1">Качество: HDRip / рип с BDRip 1080p
Формат: MP4
Видео кодек: H.264
Аудио кодек: AAC
Видео: 960x402 AR:2.40 1230 kbps 23.976 fps
Аудио: [Russian] 2ch 48 kHz 128 kbps - [Dub] Профессиональный (полное дублирование) [Лицензия BD CEE]</span>
avs [info]: 960x402p 1:1 @ 2997/125 fps (cfr)
x264 [info]: using SAR=1/1
x264 [info]: using cpu capabilities: MMX2 SSE2Fast SSSE3 SSE4.2 AVX FMA3 AVX2 LZCNT BMI2
x264 [info]: profile High, level 4.1

x264 [info]: frame I:1502 Avg QP:16.60 size: 42911
x264 [info]: frame P:37560 Avg QP:20.70 size: 12034
x264 [info]: frame B:99442 Avg QP:22.64 size: 3643
x264 [info]: consecutive B-frames: 6.4% 6.0% 13.0% 22.5% 13.6% 30.8% 4.2% 2.1% 1.4%
x264 [info]: mb I I16..4: 8.0% 69.4% 22.6%
x264 [info]: mb P I16..4: 2.6% 11.6% 2.5% P16..4: 32.7% 33.2% 7.3% 0.0% 0.0% skip:10.1%
x264 [info]: mb B I16..4: 0.3% 1.2% 0.3% B16..8: 34.7% 16.3% 1.9% direct: 2.9% skip:42.4% L0:44.6% L1:46.0% BI: 9.4%
x264 [info]: 8x8 transform intra:69.0% inter:66.4%
x264 [info]: direct mvs spatial:96.5% temporal:3.5%
x264 [info]: coded y,uvDC,uvAC intra: 72.2% 75.3% 41.6% inter: 14.2% 14.8% 5.1%
x264 [info]: i16 v,h,dc,p: 21% 13% 4% 62%
x264 [info]: i8 v,h,dc,ddl,ddr,vr,hd,vl,hu: 16% 8% 6% 9% 13% 13% 13% 11% 12%
x264 [info]: i4 v,h,dc,ddl,ddr,vr,hd,vl,hu: 25% 9% 6% 8% 12% 11% 11% 8% 10%
x264 [info]: i8c dc,h,v,p: 28% 30% 23% 18%
x264 [info]: Weighted P-Frames: Y:15.2% UV:10.1%
x264 [info]: ref P L0: 51.5% 9.6% 17.5% 6.8% 5.3% 3.6% 3.1% 1.9% 0.5% 0.1%
x264 [info]: ref B L0: 75.9% 11.6% 5.7% 2.9% 2.3% 1.2% 0.5%
x264 [info]: ref B L1: 94.7% 5.3%
x264 [info]: kb/s:1216.92

encoded 138504 frames, 17.74 fps, 1216.93 kb/s
GeneralComplete name : D:\Torrents\Hitman Agent 47.2015.HDRip.x264.960x.rip by Frost O.S.mp4Format : MPEG-4Format profile : Base MediaCodec ID : isom (isom/avc1/iso2)File size : 932 MiBDuration : 1 h 36 minOverall bit rate mode : VariableOverall bit rate : 1 353 kb/sMovie name : Hitman Agent 47 2015 HDRip x264 960x rip by Frost O SGenre : ActionContentType : Short FilmEncoded date : UTC 2016-12-26 08:35:02Tagged date : UTC 2016-12-26 08:36:00Writing application : MkvToMp4 version: 0.224 (x64)Cover : YesComment : rip by Frost O.SLongDescription : История об элитном убийце, созданном при помощи генной инженерии, который объединяется с женщиной, чтобы помочь ей найти отца и раскрыть тайну своего происхождения.

VideoID : 1Format : AVCFormat/Info : Advanced Video CodecFormat profile : [email protected] settings, CABAC : YesFormat settings, ReFrames : 8 framesCodec ID : avc1Codec ID/Info : Advanced Video CodingDuration : 1 h 36 minBit rate : 1 230 kb/sMaximum bit rate : 5 186 kb/sWidth : 960 pixelsHeight : 402 pixelsDisplay aspect ratio : 2.40:1Frame rate mode : ConstantFrame rate : 23.976 (24000/1001) FPSOriginal frame rate : 23.976 (23976/1000) FPSColor space : YUVChroma subsampling : 4:2:0Bit depth : 8 bitsScan type : ProgressiveBits/(Pixel*Frame) : 0.133Stream size : 838 MiB (90%)Writing library : x264 core 148 r2705 3f5ed56Encoding settings : cabac=1 / ref=8 / deblock=1:-2:-2 / analyse=0x3:0x113 / me=umh / subme=11 / psy=1 / psy_rd=0.90:0.00 / mixed_ref=1 / me_range=32 / chroma_me=1 / trellis=2 / 8x8dct=1 / cqm=0 / deadzone=21,11 / fast_pskip=1 / chroma_qp_offset=-2 / threads=6 / lookahead_threads=1 / sliced_threads=0 / nr=0 / decimate=0 / interlaced=0 / bluray_compat=0 / constrained_intra=0 / bframes=8 / b_pyramid=2 / b_adapt=2 / b_bias=0 / direct=3 / weightb=1 / open_gop=0 / weightp=2 / keyint=250 / keyint_min=23 / scenecut=40 / intra_refresh=0 / rc=2pass / mbtree=0 / bitrate=1230 / ratetol=1.0 / qcomp=0.70 / qpmin=0 / qpmax=69 / qpstep=4 / cplxblur=20.0 / qblur=0.5 / ip_ratio=1.40 / pb_ratio=1.30 / aq=1:0.90Language : EnglishEncoded date : UTC 2016-12-26 08:35:02Tagged date : UTC 2016-12-26 08:35:24Color range : LimitedColor primaries : BT.709Transfer characteristics : BT.709Matrix coefficients : BT.709

AudioID : 2Format : AACFormat/Info : Advanced Audio CodecFormat profile : LCCodec ID : 40Duration : 1 h 36 minBit rate mode : VariableBit rate : 128 kb/sMaximum bit rate : 135 kb/sChannel(s) : 2 channelsChannel positions : Front: L RSampling rate : 48.0 kHzFrame rate : 46.875 FPS (1024 spf)Compression mode : LossyStream size : 88.1 MiB (9%)Title : Dub_ BD CEE / Dub_ BD CEELanguage : RussianDefault : YesAlternate group : 1Encoded date : UTC 2016-12-26 08:35:16Tagged date : UTC 2016-12-26 08:35:24


Трекер:  [ 26-Дек-2016 11:00 ]

  

Скачать .torrent

Размер .torrent файла 18 KB


Размер: 932 MB
Хэш (hash) релиза: e9587ec62d43478e8a7b7500d7822d44359ec6dc

Еще никто не оставлял запись к записи скачать торрент [VIDEO] Хитмэн: Агент 47 Hitman: Agent 47 . Будь первым!

!Обратная связь