6 more uploadgig, nitroflare links
Ora Kara (2018) Bangla Hot Movie 720p HDRip 900 350MB

Скачать через торрент [VIDEO] Фантастическая четверка Fantastic Four бесплатно русская версия torrent активатор

Статистика раздачи
Размер:  811 MB   |    Зарегистрирован:  1 год 3 месяца   |    .torrent скачан:  21 раз   |   
Раздают:  1  
   
загрузка...
 
Автор Сообщение

Galfimbul

avatar Galfimbul


<span class="post-font-serif1">Фантастическая четверка / Fantastic Four</span>

<span class="post-font-serif1">Год выпуска: 2015
Страна: США, Германия, Великобритания, Канада
Жанр: фантастика, боевик, приключения
Продолжительность: 01:39:58
Перевод: русский Профессиональный (полное дублирование) BD EUR |Лицензия|
Cубтитры: нет</span>
<span class="post-font-serif1">Режиссер: Джош Транк / Josh Trank</span>
<span class="post-font-serif1">В ролях: Майлз Теллер (Reed Richards), Майкл Б. Джордан (Johnny Storm), Кейт Мара (Sue Storm), Джейми Белл (Ben Grimm / The Thing), Тоби Кеббелл (Victor Von Doom / Dr. Doom), Рег Э. Кэти (Dr. Franklin Storm), Тим Блейк Нельсон (Dr. Allen), Джошуа Монтес (Quarterback Speech School Kid), Дэн Кастелланета (Mr. Kenny), Оуэн Джадж (Young Reed) и другие .</span>
<span class="post-font-serif1">Описание: История о четырех молодых астронавтах, которые отважились на авантюрное путешествие в параллельное измерение для исследования аномальной волны космической энергии. Вернувшись из путешествия, они обнаружили у себя суперспособности, которые навсегда изменили их жизни…</span>
<span class="post-font-serif1">Релиз группы </span>
<span class="post-font-serif1">Качество: HDRip / рип с BDRip 720p
Формат: MP4
Видео кодек: H.264
Аудио кодек: AAC
Видео: 960x402 AR:2.40 1000 kbps 23.976 fps
Аудио: [Russian] 2ch 48 kHz 128 kbps - [Dub] Профессиональный (полное дублирование) BD EUR |Лицензия|</span>
avs [info]: 960x402p 1:1 @ 2997/125 fps (cfr)
x264 [info]: using SAR=1/1
x264 [info]: using cpu capabilities: MMX2 SSE2Fast SSSE3 SSE4.2 AVX FMA3 AVX2 LZCNT BMI2
x264 [info]: profile High, level 4.1

x264 [info]: frame I:1461 Avg QP:15.23 size: 41181
x264 [info]: frame P:35580 Avg QP:20.12 size: 10179
x264 [info]: frame B:106779 Avg QP:21.23 size: 3060
x264 [info]: consecutive B-frames: 6.7% 4.0% 7.9% 16.9% 13.9% 30.3% 5.4% 5.1% 2.3% 4.9% 2.7%
x264 [info]: mb I I16..4: 8.9% 67.2% 23.9%
x264 [info]: mb P I16..4: 1.5% 6.7% 1.6% P16..4: 32.6% 31.5% 7.9% 0.0% 0.0% skip:18.2%
x264 [info]: mb B I16..4: 0.2% 1.0% 0.2% B16..8: 33.8% 14.6% 1.7% direct: 2.4% skip:46.2% L0:44.1% L1:47.8% BI: 8.1%
x264 [info]: 8x8 transform intra:68.4% inter:63.0%
x264 [info]: direct mvs spatial:96.3% temporal:3.7%
x264 [info]: coded y,uvDC,uvAC intra: 70.2% 71.5% 42.7% inter: 11.8% 10.3% 3.1%
x264 [info]: i16 v,h,dc,p: 32% 14% 5% 49%
x264 [info]: i8 v,h,dc,ddl,ddr,vr,hd,vl,hu: 13% 6% 8% 9% 13% 13% 13% 11% 13%
x264 [info]: i4 v,h,dc,ddl,ddr,vr,hd,vl,hu: 27% 8% 7% 8% 11% 10% 10% 9% 10%
x264 [info]: i8c dc,h,v,p: 29% 31% 22% 18%
x264 [info]: Weighted P-Frames: Y:12.4% UV:9.1%
x264 [info]: ref P L0: 52.5% 8.2% 16.1% 6.8% 5.6% 4.5% 3.5% 2.2% 0.7% 0.1%
x264 [info]: ref B L0: 73.2% 12.3% 6.8% 3.3% 2.5% 1.4% 0.5%
x264 [info]: ref B L1: 93.4% 6.6%
x264 [info]: kb/s:999.07

encoded 143820 frames, 20.70 fps, 999.07 kb/s
GeneralComplete name : D:\Torrents\Fantastic Four.2015.HDRip.x264.960x.rip by Frost O.S.mp4Format : MPEG-4Format profile : Base MediaCodec ID : isom (isom/avc1/iso2)File size : 811 MiBDuration : 1 h 39 minOverall bit rate mode : VariableOverall bit rate : 1 135 kb/sMovie name : Fantastic Four 2015 HDRip x264 960x rip by Frost O SGenre : FantasyContentType : Short FilmEncoded date : UTC 2016-12-26 07:58:38Tagged date : UTC 2016-12-26 07:59:55Writing application : MkvToMp4 version: 0.224 (x64)Cover : YesComment : rip by Frost O.SLongDescription : История о четырех молодых астронавтах, которые отважились на авантюрное путешествие в параллельное измерение для исследования аномальной волны космической энергии. Вернувшись из путешествия, они обнаружили у себя суперспособности, которые навсегда изменили их жизни…

VideoID : 1Format : AVCFormat/Info : Advanced Video CodecFormat profile : [email protected] settings, CABAC : YesFormat settings, ReFrames : 8 framesCodec ID : avc1Codec ID/Info : Advanced Video CodingDuration : 1 h 39 minBit rate : 1 000 kb/sMaximum bit rate : 5 642 kb/sWidth : 960 pixelsHeight : 402 pixelsDisplay aspect ratio : 2.40:1Frame rate mode : ConstantFrame rate : 23.976 (24000/1001) FPSOriginal frame rate : 23.976 (23976/1000) FPSColor space : YUVChroma subsampling : 4:2:0Bit depth : 8 bitsScan type : ProgressiveBits/(Pixel*Frame) : 0.108Stream size : 714 MiB (88%)Writing library : x264 core 148 r2705 3f5ed56Encoding settings : cabac=1 / ref=8 / deblock=1:-2:-2 / analyse=0x3:0x113 / me=umh / subme=11 / psy=1 / psy_rd=1.00:0.00 / mixed_ref=1 / me_range=32 / chroma_me=1 / trellis=2 / 8x8dct=1 / cqm=0 / deadzone=21,11 / fast_pskip=0 / chroma_qp_offset=-2 / threads=6 / lookahead_threads=1 / sliced_threads=0 / nr=0 / decimate=0 / interlaced=0 / bluray_compat=0 / constrained_intra=0 / bframes=10 / b_pyramid=2 / b_adapt=2 / b_bias=0 / direct=3 / weightb=1 / open_gop=0 / weightp=2 / keyint=250 / keyint_min=23 / scenecut=40 / intra_refresh=0 / rc=2pass / mbtree=0 / bitrate=1000 / ratetol=1.0 / qcomp=0.70 / qpmin=0 / qpmax=69 / qpstep=4 / cplxblur=20.0 / qblur=0.5 / ip_ratio=1.40 / pb_ratio=1.30 / aq=1:0.90Language : EnglishEncoded date : UTC 2016-12-26 07:58:38Tagged date : UTC 2016-12-26 07:59:18Color range : LimitedColor primaries : BT.709Transfer characteristics : BT.709Matrix coefficients : BT.709

AudioID : 2Format : AACFormat/Info : Advanced Audio CodecFormat profile : LCCodec ID : 40Duration : 1 h 39 minBit rate mode : VariableBit rate : 128 kb/sMaximum bit rate : 135 kb/sChannel(s) : 2 channelsChannel positions : Front: L RSampling rate : 48.0 kHzFrame rate : 46.875 FPS (1024 spf)Compression mode : LossyStream size : 91.5 MiB (11%)Title : BD EUR / BD EURLanguage : RussianDefault : YesAlternate group : 1Encoded date : UTC 2016-12-26 07:59:02Tagged date : UTC 2016-12-26 07:59:18


Трекер:  [ 26-Дек-2016 11:00 ]

  

Скачать .torrent

Размер .torrent файла 16 KB


Размер: 811 MB
Хэш (hash) релиза: 12a704511c9b8c8b412a1159411a349b4f15a6

Еще никто не оставлял запись к записи скачать торрент [VIDEO] Фантастическая четверка Fantastic Four . Будь первым!

!Обратная связь