No Teu Olhar | Enganchados a la muerte (2017) | Don't Mess with Texas

Скачать через торрент [VIDEO] Пиксели Pixels бесплатно русская версия torrent активатор

Статистика раздачи
Размер:  1.31 GB   |    Зарегистрирован:  1 год 6 месяцев   |    .torrent скачан:  27 раз   |   
Раздают:  1  
   
загрузка...
 
Автор Сообщение

Galfimbul

avatar Galfimbul


<span class="post-font-serif1">Пиксели / Pixels</span>

<span class="post-font-serif1">Год выпуска: 2015
Страна: США / Columbia Pictures
Жанр: фантастика, боевик, комедия
Продолжительность: 01:45:49
Перевод №1: русский Профессиональный (полное дублирование) BD CEE |Лицензия|
Перевод №2: украинский Профессиональный (полное дублирование) BD CEE |Лицензия|
Оригинальная дорожка: Есть
Cубтитры: русские (forced iTunes, iTunes), украинские (iTunes), английские (iTunes)</span>
<span class="post-font-serif1">Режиссер: Крис Коламбус / Chris Columbus</span>
<span class="post-font-serif1">В ролях: Адам Сэндлер (Brenner), Кевин Джеймс (Cooper), Мишель Монахэн (Violet), Питер Динклэйдж (Eddie), Джош Гэд (Ludlow), Брайан Кокс (Admiral Porter), Мэттью Линтц (Matty), Шон Бин (Corporal Hill (SAS Officer)), Джейн Краковски (First Lady Jane Cooper), Дэн Эйкройд (1982 Championship MC) и другие .</span>
<span class="post-font-serif1">Описание: Очередное вторжение инопланетян на Землю… Вы скажете: «Что может быть банальнее?!». Да, если бы на этот раз они не предстали в виде героев вселенски популярных компьютерных игр. Сражаться с пришельцами призвана команда бывших геймеров, в числе которых: Президент Соединенных Штатов Америки; карлик-зэк, большой ценитель прекрасного пола; зануда-параноик, свято верящий в теорию вселенского заговора; профессиональный неудачник и циник, в детстве подававший большие надежды. А помогает новоиспеченным героям очаровательная ученая фея.</span>
<span class="post-font-serif1">Релиз группы </span>
<span class="post-font-serif1">Качество: HDRip / рип с BDRip 720p
Формат: MP4
Видео кодек: H.264
Аудио кодек: AAC
Видео: 960x402 AR:2.40 1368 kbps 23.976 fps
Аудио №1: [Russian] 2ch 48 kHz 128 kbps - [Dub] Профессиональный (полное дублирование) BD CEE |Лицензия|
Аудио №2: [Ukrainian] 2ch 48 kHz 128 kbps - [Dub] Профессиональный (полное дублирование) BD CEE |Лицензия|
Аудио №3: [English] 2ch 48 kHz 128 kbps - [Dub] Оригинал</span>
avs [info]: 960x402p 1:1 @ 2997/125 fps (cfr)
x264 [info]: using SAR=1/1
x264 [info]: using cpu capabilities: MMX2 SSE2Fast SSSE3 SSE4.2 AVX FMA3 AVX2 LZCNT BMI2
x264 [info]: profile High, level 4.1

x264 [info]: frame I:1515 Avg QP:17.47 size: 56096
x264 [info]: frame P:37422 Avg QP:22.19 size: 14311
x264 [info]: frame B:113295 Avg QP:25.97 size: 4104
x264 [info]: consecutive B-frames: 3.1% 5.0% 8.2% 40.4% 11.1% 21.3% 2.2% 6.7% 1.6% 0.4%
x264 [info]: mb I I16..4: 10.7% 56.9% 32.4%
x264 [info]: mb P I16..4: 1.3% 7.0% 2.2% P16..4: 32.4% 33.8% 10.7% 0.0% 0.0% skip:12.6%
x264 [info]: mb B I16..4: 0.2% 1.5% 0.4% B16..8: 32.2% 11.8% 2.1% direct: 2.2% skip:49.7% L0:40.8% L1:47.3% BI:11.9%
x264 [info]: 8x8 transform intra:66.9% inter:59.6%
x264 [info]: direct mvs spatial:92.3% temporal:7.7%
x264 [info]: coded y,uvDC,uvAC intra: 79.6% 82.0% 59.6% inter: 13.2% 12.0% 5.7%
x264 [info]: i16 v,h,dc,p: 13% 42% 3% 42%
x264 [info]: i8 v,h,dc,ddl,ddr,vr,hd,vl,hu: 9% 8% 4% 10% 14% 14% 14% 13% 15%
x264 [info]: i4 v,h,dc,ddl,ddr,vr,hd,vl,hu: 19% 13% 5% 8% 12% 11% 11% 9% 12%
x264 [info]: i8c dc,h,v,p: 36% 27% 19% 18%
x264 [info]: Weighted P-Frames: Y:1.8% UV:1.0%
x264 [info]: ref P L0: 55.7% 11.3% 13.6% 6.1% 4.1% 3.8% 3.1% 2.2% 0.1% 0.0%
x264 [info]: ref B L0: 81.7% 8.1% 4.7% 2.2% 1.7% 1.1% 0.5%
x264 [info]: ref B L1: 95.3% 4.7%
x264 [info]: kb/s:1367.69

encoded 152232 frames, 19.82 fps, 1367.69 kb/s
GeneralComplete name : D:\Torrents\Pixels.2015.HDRip.x264.960x.rip by Frost O.S.mp4Format : MPEG-4Format profile : Base MediaCodec ID : isom (isom/avc1/iso2)File size : 1.31 GiBDuration : 1 h 45 minOverall bit rate mode : VariableOverall bit rate : 1 767 kb/sMovie name : Pixels 2015 HDRip x264 960x rip by Frost O SGenre : ComedyContentType : Short FilmEncoded date : UTC 2016-12-26 08:23:27Tagged date : UTC 2016-12-26 08:25:11Writing application : MkvToMp4 version: 0.224 (x64)Cover : YesComment : rip by Frost O.SLongDescription : Очередное вторжение инопланетян на Землю… Вы скажете: «Что может быть банальнее?!». Да, если бы на этот раз они не предстали в виде героев вселенски популярных компьютерных игр. Сражаться с пришельцами призвана команда бывших геймеров, в числе которых: Президент Соединенных Штатов Америки; карлик-зэк, большой ценитель прекрасного пола; зануда-параноик, свято верящий в теорию вселенского заговора; профессиональный неудачник и циник, в детстве подававший большие надежды. А помогает новоиспеченным героям очаровательная ученая фея.

VideoID : 1Format : AVCFormat/Info : Advanced Video CodecFormat profile : [email protected] settings, CABAC : YesFormat settings, ReFrames : 8 framesCodec ID : avc1Codec ID/Info : Advanced Video CodingDuration : 1 h 45 minBit rate : 1 368 kb/sMaximum bit rate : 13.8 Mb/sWidth : 960 pixelsHeight : 402 pixelsDisplay aspect ratio : 2.40:1Frame rate mode : ConstantFrame rate : 23.976 (24000/1001) FPSOriginal frame rate : 23.976 (23976/1000) FPSColor space : YUVChroma subsampling : 4:2:0Bit depth : 8 bitsScan type : ProgressiveBits/(Pixel*Frame) : 0.148Stream size : 1.01 GiB (77%)Writing library : x264 core 148 r2705 3f5ed56Encoding settings : cabac=1 / ref=8 / deblock=1:-2:-1 / analyse=0x3:0x113 / me=umh / subme=11 / psy=1 / psy_rd=1.00:0.00 / mixed_ref=1 / me_range=32 / chroma_me=1 / trellis=2 / 8x8dct=1 / cqm=0 / deadzone=21,11 / fast_pskip=0 / chroma_qp_offset=-2 / threads=6 / lookahead_threads=1 / sliced_threads=0 / nr=0 / decimate=0 / interlaced=0 / bluray_compat=0 / constrained_intra=0 / bframes=9 / b_pyramid=2 / b_adapt=2 / b_bias=0 / direct=3 / weightb=1 / open_gop=0 / weightp=2 / keyint=250 / keyint_min=23 / scenecut=40 / intra_refresh=0 / rc_lookahead=40 / rc=2pass / mbtree=1 / bitrate=1368 / ratetol=1.0 / qcomp=0.60 / qpmin=0 / qpmax=69 / qpstep=4 / cplxblur=20.0 / qblur=0.5 / ip_ratio=1.40 / aq=1:0.90Language : EnglishEncoded date : UTC 2016-12-26 08:23:27Tagged date : UTC 2016-12-26 08:24:05Color range : LimitedColor primaries : BT.709Transfer characteristics : BT.709Matrix coefficients : BT.709

Audio #1ID : 2Format : AACFormat/Info : Advanced Audio CodecFormat profile : LCCodec ID : 40Duration : 1 h 45 minBit rate mode : VariableBit rate : 128 kb/sMaximum bit rate : 135 kb/sChannel(s) : 2 channelsChannel positions : Front: L RSampling rate : 48.0 kHzFrame rate : 46.875 FPS (1024 spf)Compression mode : LossyStream size : 96.9 MiB (7%)Title : Dub_ BD CEE / Dub_ BD CEELanguage : RussianDefault : YesAlternate group : 1Encoded date : UTC 2016-12-26 08:23:43Tagged date : UTC 2016-12-26 08:24:05

Audio #2ID : 3Format : AACFormat/Info : Advanced Audio CodecFormat profile : LCCodec ID : 40Duration : 1 h 45 minBit rate mode : VariableBit rate : 128 kb/sMaximum bit rate : 135 kb/sChannel(s) : 2 channelsChannel positions : Front: L RSampling rate : 48.0 kHzFrame rate : 46.875 FPS (1024 spf)Compression mode : LossyStream size : 96.9 MiB (7%)Title : Dub_ BD CEE / Dub_ BD CEELanguage : UkrainianDefault : NoAlternate group : 1Encoded date : UTC 2016-12-26 08:23:52Tagged date : UTC 2016-12-26 08:24:05

Audio #3ID : 4Format : AACFormat/Info : Advanced Audio CodecFormat profile : LCCodec ID : 40Duration : 1 h 45 minBit rate mode : VariableBit rate : 128 kb/sMaximum bit rate : 135 kb/sChannel(s) : 2 channelsChannel positions : Front: L RSampling rate : 48.0 kHzFrame rate : 46.875 FPS (1024 spf)Compression mode : LossyStream size : 96.9 MiB (7%)Title : Original / OriginalLanguage : EnglishDefault : NoAlternate group : 1Encoded date : UTC 2016-12-26 08:23:58Tagged date : UTC 2016-12-26 08:24:05

Text #1ID : 5Format : Timed TextMuxing mode : sbtlCodec ID : tx3gDuration : 1 h 38 minBit rate mode : VariableBit rate : 1 b/sStream size : 491 Bytes (0%)Title : Forced_ iTunes / Forced_ iTunesLanguage : RussianDefault : YesForced : NoAlternate group : 2Encoded date : UTC 2016-12-26 08:24:04Tagged date : UTC 2016-12-26 08:24:05

Text #2ID : 6Format : Timed TextMuxing mode : sbtlCodec ID : tx3gDuration : 1 h 40 minBit rate mode : VariableBit rate : 122 b/sStream size : 90.2 KiB (0%)Title : iTunes / iTunesLanguage : RussianDefault : NoForced : NoAlternate group : 2Encoded date : UTC 2016-12-26 08:24:04Tagged date : UTC 2016-12-26 08:24:05

Text #3ID : 7Format : Timed TextMuxing mode : sbtlCodec ID : tx3gDuration : 1 h 40 minBit rate mode : VariableBit rate : 127 b/sStream size : 93.8 KiB (0%)Title : iTunes / iTunesLanguage : UkrainianDefault : NoForced : NoAlternate group : 2Encoded date : UTC 2016-12-26 08:24:04Tagged date : UTC 2016-12-26 08:24:05

Text #4ID : 8Format : Timed TextMuxing mode : sbtlCodec ID : tx3gDuration : 33 min 28 sBit rate mode : VariableBit rate : 1 b/sStream size : 235 Bytes (0%)Title : Forced_ iTunes / Forced_ iTunesLanguage : EnglishDefault : NoForced : NoAlternate group : 2Encoded date : UTC 2016-12-26 08:24:04Tagged date : UTC 2016-12-26 08:24:05

Text #5ID : 9Format : Timed TextMuxing mode : sbtlCodec ID : tx3gDuration : 1 h 37 minBit rate mode : VariableBit rate : 79 b/sStream size : 56.6 KiB (0%)Title : iTunes / iTunesLanguage : EnglishDefault : NoForced : NoAlternate group : 2Encoded date : UTC 2016-12-26 08:24:04Tagged date : UTC 2016-12-26 08:24:05


Трекер:  [ 26-Дек-2016 11:00 ]

  

Скачать .torrent

Размер .torrent файла 13 KB


Размер: 1.31 GB
Хэш (hash) релиза: 9295603fe163d25accb28dfd2aa9518f29e84e3c

Еще никто не оставлял запись к записи скачать торрент [VIDEO] Пиксели Pixels . Будь первым!

!Обратная связь