Fanney Khan | Castle Rock - Saison 1 - VOSTFR | Vinland Saga

Скачать через торрент [VIDEO] Лес призраков The Forest бесплатно русская версия torrent активатор

Статистика раздачи
Размер:  1.73 GB   |    Зарегистрирован:  1 год 7 месяцев   |    .torrent скачан:  23 раза   |   
Раздают:  1  
   
загрузка...
 
Автор Сообщение

Galfimbul

avatar Galfimbul


Лес призраков / The Forest
«Каждый приходит сюда в поиске выхода»
Премьера: 2016
Оригинальное название: The Forest
Страна: США
Жанр: ужасы, триллер, детектив
Возраст: 16+

Режиссер: Джейсон Зада / Jason Zada

В ролях: Натали Дормер, Оуэн Мэкен, Стефани Вогт, Осаму Танпопо, Ясуо Тобисима, Ибуки Канеда, Акико Ивасе, Кикуо Ичикава, Норико Сакура, Йозеф Аоки

Описание фильма Лес призраков (2016): Молодая американская девушка по имени Сара собирается искать свою сестру-близняшку, которая неразъяснимым образом пропала на японском острове Хонсю. Приехав в Японию она оказывается у подножья Фудзи и попадает в окутанный тайной лес, который пользуется очень дурной и темной славой. Девушка Сара даже не подозревает, что она попала в темный и мрачный мир призраков. Разъяренные и замученные души убивают любого, кто попадаются им на пути в этом ужасном лесу…

Продолжительность: 01:33:17
Перевод: Дублированный [iTunes]
Оригинальная дорожка: нет

Автор рипа:

Качество видео: BDRip Исходник: Blu-Ray Remux (1080p) Формат: mp4
Видео кодек: MPEG-4 AVC Аудио кодек: AAC
Видео: 1280x692 (1.85:1) at 23.976 fps, AVC at 2 516 kbps avg, 0.118 bit/pixel
Аудио №1 Rus: 48.0 KHz, AAC, 2 ch, 128.0 Kbps
Субтитры: нет
Навигация по главам: есть
Размер: 1.73 GiB
avs [info]: 1280x692p 1:1 @ 24000/1001 fps (cfr)
x264 [info]: using SAR=1/1
x264 [info]: using cpu capabilities: MMX2 SSE2Fast SSSE3 Cache64
x264 [info]: profile High, level 4.1
x264 [info]: frame I:813 Avg QP:14.53 size:123550
x264 [info]: frame P:19481 Avg QP:18.04 size: 32659
x264 [info]: frame B:113910 Avg QP:20.19 size: 8988
x264 [info]: consecutive B-frames: 0.9% 0.4% 1.4% 4.2% 6.7% 40.4% 6.6% 2.3% 4.6% 5.2% 8.1% 6.8% 5.6% 2.9% 2.1% 0.8% 0.9%
x264 [info]: mb I I16..4: 11.0% 73.0% 16.0%
x264 [info]: mb P I16..4: 1.9% 11.6% 1.4% P16..4: 40.4% 18.1% 13.4% 0.0% 0.0% skip:13.3%
x264 [info]: mb B I16..4: 0.1% 1.0% 0.1% B16..8: 40.3% 5.3% 1.0% direct: 4.3% skip:47.9% L0:45.0% L1:49.5% BI: 5.5%
x264 [info]: 8x8 transform intra:78.8% inter:70.4%
x264 [info]: coded y,uvDC,uvAC intra: 78.3% 79.6% 53.2% inter: 16.0% 17.8% 2.1%
x264 [info]: i16 v,h,dc,p: 38% 11% 12% 39%
x264 [info]: i8 v,h,dc,ddl,ddr,vr,hd,vl,hu: 17% 10% 29% 5% 8% 8% 7% 7% 7%
x264 [info]: i4 v,h,dc,ddl,ddr,vr,hd,vl,hu: 35% 11% 14% 5% 9% 8% 7% 6% 5%
x264 [info]: i8c dc,h,v,p: 58% 16% 19% 8%
x264 [info]: Weighted P-Frames: Y:7.1% UV:4.0%
x264 [info]: ref P L0: 48.8% 8.9% 18.4% 6.6% 5.5% 3.9% 3.5% 2.0% 2.1% 0.2% 0.0%
x264 [info]: ref B L0: 77.4% 10.5% 5.2% 2.5% 1.9% 1.5% 0.8% 0.2%
x264 [info]: ref B L1: 92.3% 7.7%
x264 [info]: kb/s:2516.22
encoded 134204 frames, 1.36 fps, 2516.22 kb/s
GeneralComplete name : D:\Torrents\Download\Les_prizrakov_2016_KinoGadget.mp4Format : MPEG-4Format profile : Base MediaCodec ID : isom (isom)File size : 1.73 GiBDuration : 1 h 33 minOverall bit rate mode : VariableOverall bit rate : 2 651 kb/sMovie name : Лес призраков | KinoGadgetPerformer : Джейсон ЗадаDirector : Джейсон ЗадаActor : Натали Дормер / Оуэн Мэкен / Стефани Вогт / Осаму Танпопо / Ясуо Тобисима / Ибуки Канеда / Акико Ивасе / Кикуо Ичикава / Норико Сакура / Йозеф АокиScreenplay by : Ник Антоска / Сара Корнвэлл / Бен КетаиProducer : Дэвид С. Гойер / Дэвид Линд / Тори МецгерGenre : Horror, Mystery, ThrillerContentType : Short FilmRecorded date : 2016Encoded date : UTC 2016-12-24 14:58:16Tagged date : UTC 2016-12-24 15:20:07Cover : YesContentRating : mpaa|PG-13|300|LongDescription : Молодая американская девушка по имени Сара собирается искать свою сестру-близняшку, которая неразъяснимым образом пропала на японском острове Хонсю. Приехав в Японию она оказывается у подножья Фудзи и попадает в окутанный тайной лес, который пользуется очень дурной и темной славой. Девушка Сара даже не подозревает, что она попала в темный и мрачный мир призраков. Разъяренные и замученные души убивают любого, кто попадаются им на пути в этом ужасном лесу…HDVideo : Yes

VideoID : 1Format : AVCFormat/Info : Advanced Video CodecFormat profile : [email protected] settings, CABAC : YesFormat settings, ReFrames : 9 framesCodec ID : avc1Codec ID/Info : Advanced Video CodingDuration : 1 h 33 minBit rate : 2 516 kb/sMaximum bit rate : 11.8 Mb/sWidth : 1 280 pixelsHeight : 692 pixelsDisplay aspect ratio : 1.85:1Frame rate mode : ConstantFrame rate : 23.976 (24000/1001) FPSColor space : YUVChroma subsampling : 4:2:0Bit depth : 8 bitsScan type : ProgressiveBits/(Pixel*Frame) : 0.118Stream size : 1.64 GiB (95%)Writing library : x264 core 148 r2638 7599210Encoding settings : cabac=1 / ref=9 / deblock=1:-2:-1 / analyse=0x3:0x113 / me=umh / subme=7 / psy=1 / psy_rd=1.00:0.15 / mixed_ref=1 / me_range=32 / chroma_me=1 / trellis=2 / 8x8dct=1 / cqm=0 / deadzone=21,11 / fast_pskip=1 / chroma_qp_offset=-3 / threads=3 / lookahead_threads=1 / sliced_threads=0 / nr=0 / decimate=1 / interlaced=0 / bluray_compat=0 / constrained_intra=0 / bframes=16 / b_pyramid=2 / b_adapt=2 / b_bias=16 / direct=1 / weightb=1 / open_gop=0 / weightp=2 / keyint=240 / keyint_min=23 / scenecut=40 / intra_refresh=0 / rc_lookahead=60 / rc=crf / mbtree=1 / crf=19.0 / qcomp=0.60 / qpmin=0 / qpmax=69 / qpstep=4 / ip_ratio=1.40 / aq=1:1.00Encoded date : UTC 2016-12-24 13:44:40Tagged date : UTC 2016-12-24 14:59:33

AudioID : 2Format : AACFormat/Info : Advanced Audio CodecFormat profile : LCCodec ID : 40Duration : 1 h 33 minBit rate mode : VariableBit rate : 128 kb/sMaximum bit rate : 135 kb/sChannel(s) : 2 channelsChannel positions : Front: L RSampling rate : 48.0 kHzFrame rate : 46.875 FPS (1024 spf)Compression mode : LossyStream size : 85.4 MiB (5%)Title : Dub [iTunes]Language : RussianEncoded date : UTC 2016-12-24 14:44:46Tagged date : UTC 2016-12-24 14:59:33

Menu00:00:00.000 : 00:00:00.00000:05:31.998 : 00:05:31.99800:09:30.236 : 00:09:30.23600:15:37.353 : 00:15:37.35300:19:23.954 : 00:19:23.95400:23:38.375 : 00:23:38.37500:28:57.194 : 00:28:57.19400:34:14.970 : 00:34:14.97000:36:58.258 : 00:36:58.25800:40:25.673 : 00:40:25.67300:43:56.133 : 00:43:56.13300:48:47.633 : 00:48:47.63300:53:20.489 : 00:53:20.48900:59:39.117 : 00:59:39.11701:02:35.085 : 01:02:35.08501:07:20.161 : 01:07:20.16101:11:33.331 : 01:11:33.33101:16:26.999 : 01:16:26.99901:21:35.057 : 01:21:35.05701:26:54.334 : 01:26:54.334
<a href="tracker.php?rid=39840292" class="postLink"> </a>

Трекер:  [ 24-Дек-2016 19:00 ]

  

Скачать .torrent

Размер .torrent файла 17 KB


Размер: 1.73 GB
Хэш (hash) релиза: 29996db2f454d5633c664cc45dad793bc6b1c60d

Еще никто не оставлял запись к записи скачать торрент [VIDEO] Лес призраков The Forest . Будь первым!

!Обратная связь