101 Aussie Hits CD5 | Recovery | HD Unacknowledged (2017)

Скачать через торрент [MC] The Victorias Secret Fashion Show бесплатно русская версия torrent активатор

Статистика раздачи
Размер:  967 MB   |    Зарегистрирован:  1 год 6 месяцев   |    .torrent скачан:  167 раз   |   
Раздают:  1  
   
загрузка...
 
Автор Сообщение

Galfimbul

avatar Galfimbul



Ежегодный шоу-показ мод
The Victoria's Secret Fashion Show 2016
<span class="post-font-serif1">Год выпуска: 2016
Страна: США
Жанр: Музыкальное fashion-шоу
Продолжительность: 00:43:01
Оригинальная аудиодорожка: английский
Cубтитры: нет

Режиссер: Майкл Бэй / Michael Bay

В ролях: Адриана Лима (Adriana Lima), Алессандра Амбросио (Alessandra Ambrosio), Лили Олдридж (Lily Aldridge), Эльза Хоск (Elsa Hosk), Жасмин Тукс (Jasmine Tookes), Лаис Рибейро (Lais Ribeiro), Марта Хант (Martha Hunt), Роми Страйд (Romee Strijd), Сара Сампайо (Sara Sampaio), Стелла Максвелл (Stella Maxwell), Тейлор Хилл (Taylor Hill) и Жозефин Скривер (Josephine Skriver); Леди Гага (Lady Gaga), Бруно Марс (Bruno Mars) и Уикнд (The Weeknd)

Описание: Одно из самых сексуальных событий года – шоу Victoria's Secret 2016 прошло 30 ноября в Париже. Показ мод состоялся в культурно-выставочном центре под названием Большой дворец (Grand Palais), а транслировать его будут по американскому каналу CBS 5 декабря. В рамках шоу модели продемонстрировали 82 наряда, которые распределены по нескольким тематикам: Восточная Азия, Старый Голливуд, Восточная Европа, уличный стиль, готический стиль и яркий стиль вечеринки. Во время показа на подиуме появились певица Леди Гага, музыкант Бруно Марс и певец The Weeknd, которые исполнили свои композиции, сопровождая дефиле «ангелов» Victoria's Secret.

Качество: HDTVRip | <span class="post-font-serif1">The Victoria's Secret Fashion Show (2016) 1080i HDTV 40MBit MPEG-2 DTS-HD 5.1 HDCLUB
Формат: MP4

Видео: AVC (x264), 1280x720 (1.77:1), ~2980 kbps, 23.976 fps, 0.135 bpp
Аудио: Английский, AСC, 48 KHz, 2 ch, 160 kbps

[b]Релиз:

</span></a></span></span></span>
[spoiler="x264 [info]"]
crop(0, 0, -0, -0)
raw [info]: 1280x720p 1:1 @ 24000/1001 fps (cfr)
x264 [info]: using SAR=1/1
x264 [info]: profile High, level 4.1
x264 [info]: frame I:527 Avg QP:22.03 size: 64015
x264 [info]: frame P:17945 Avg QP:26.48 size: 26852
x264 [info]: frame B:43415 Avg QP:29.24 size: 10274
x264 [info]: consecutive B-frames: 4.7% 6.6% 20.5% 37.7% 19.5% 8.0% 1.2% 1.0% 0.2% 0.3% 0.4%
x264 [info]: mb I I16..4: 11.7% 67.9% 20.4%
x264 [info]: mb P I16..4: 4.9% 20.9% 3.1% P16..4: 31.0% 28.0% 5.7% 0.0% 0.0% skip: 6.4%
x264 [info]: mb B I16..4: 0.8% 2.7% 0.3% B16..8: 34.5% 15.7% 2.1% direct: 4.6% skip:39.3% L0:45.1% L1:46.6% BI: 8.3%
x264 [info]: 8x8 transform intra:71.5% inter:75.1%
x264 [info]: direct mvs spatial:97.1% temporal:2.9%
x264 [info]: coded y,uvDC,uvAC intra: 61.4% 66.1% 26.9% inter: 17.0% 19.6% 1.7%
x264 [info]: i16 v,h,dc,p: 17% 14% 4% 65%
x264 [info]: i8 v,h,dc,ddl,ddr,vr,hd,vl,hu: 8% 5% 5% 10% 15% 16% 15% 14% 13%
x264 [info]: i4 v,h,dc,ddl,ddr,vr,hd,vl,hu: 12% 8% 6% 9% 14% 14% 13% 11% 13%
x264 [info]: i8c dc,h,v,p: 27% 26% 21% 26%
x264 [info]: ref P L0: 67.1% 14.4% 7.4% 3.8% 2.8% 2.4% 2.1% 0.1%
x264 [info]: ref B L0: 87.3% 6.6% 2.9% 1.3% 0.9% 0.6% 0.3%
x264 [info]: ref B L1: 97.9% 2.1%
x264 [info]: kb/s:2980.50
<pre>
ОбщееУникальный идентификатор : 232282536358787211182022928385707013823 (0xAEBFFD3E62688725B3F978BAAF4EF6BF)Полное имя : ...\The Victoria's Secret Fashion Show 2016 [email protected]Формат : MatroskaВерсия формата : Version 4 / Version 2Размер файла : 967 МбайтПродолжительность : 43 м. 1 с.Общий поток : 3143 Кбит/секНазвание фильма : The Victoria's Secret Fashion Show 2016 [email protected]=-Дата кодирования : UTC 2016-12-24 03:48:43Программа кодирования : mkvmerge v9.6.0 ('Slave To Your Mind') 32bitБиблиотека кодирования : libebml v1.3.4 + libmatroska v1.4.5

ВидеоИдентификатор : 1Формат : AVCФормат/Информация : Advanced Video CodecПрофиль формата : [email protected]Параметр CABAC формата : ДаПараметр ReFrames формата : 8 кадровИдентификатор кодека : V_MPEG4/ISO/AVCПродолжительность : 43 м. 1 с.Битрейт : 2980 Кбит/секШирина : 1280 пикселейВысота : 720 пикселейСоотношение сторон : 16:9Режим частоты кадров : ПостоянныйЧастота кадров : 23,976 (24000/1001) кадра/секЦветовое пространство : YUVСубдискретизация насыщенности : 4:2:0Битовая глубина : 8 битТип развёртки : ПрогрессивнаяБит/(Пиксели*Кадры) : 0.135Размер потока : 917 Мбайт (95%)Заголовок : Rip by nnlabetikБиблиотека кодирования : x264 core 148 r2744 b97ae06Настройки программы : cabac=1 / ref=8 / deblock=1:-2:-1 / analyse=0x3:0x113 / me=umh / subme=11 / psy=1 / psy_rd=1.00:0.00 / mixed_ref=1 / me_range=32 / chroma_me=1 / trellis=2 / 8x8dct=1 / cqm=0 / deadzone=21,11 / fast_pskip=0 / chroma_qp_offset=-2 / threads=4 / lookahead_threads=1 / sliced_threads=0 / nr=0 / decimate=1 / interlaced=0 / bluray_compat=0 / constrained_intra=0 / bframes=10 / b_pyramid=2 / b_adapt=2 / b_bias=0 / direct=3 / weightb=1 / open_gop=0 / weightp=0 / keyint=240 / keyint_min=23 / scenecut=40 / intra_refresh=0 / rc_lookahead=50 / rc=2pass / mbtree=0 / bitrate=2980 / ratetol=1.0 / qcomp=0.60 / qpmin=0 / qpmax=69 / qpstep=4 / cplxblur=20.0 / qblur=0.5 / vbv_maxrate=50000 / vbv_bufsize=62500 / nal_hrd=none / filler=0 / ip_ratio=1.40 / pb_ratio=1.30 / aq=1:1.00Язык : EnglishDefault : ДаForced : НетЦветовой диапазон : LimitedОсновные цвета : BT.709Характеристики трансфера : BT.709Коэффициенты матрицы : BT.709

АудиоИдентификатор : 2Формат : AACФормат/Информация : Advanced Audio CodecПрофиль формата : LCИдентификатор кодека : A_AACПродолжительность : 43 м. 1 с.Битрейт : 160 Кбит/секКаналы : 2 каналаРасположение каналов : Front: L RЧастота : 48,0 КГцЧастота кадров : 46,875 кадров/сек (1024 spf)Метод сжатия : С потерямиРазмер потока : 49,2 Мбайт (5%)Язык : EnglishDefault : ДаForced : Нет
</pre>[/spoiler]

Трекер:  [ 24-Дек-2016 07:30 ]

  

Скачать .torrent

Размер .torrent файла 19 KB


Размер: 967 MB
Хэш (hash) релиза: 74567502db0669b66c120f503f8d273d267dadf5

Еще никто не оставлял запись к записи скачать торрент [MC] The Victorias Secret Fashion Show . Будь первым!

!Обратная связь