Más detalles | Animation | Premium Accounts Shop

Скачать через торрент [MULT] Рождественская история A Christmas Carol бесплатно русская версия torrent активатор

Статистика раздачи
Размер:  1010 MB   |    Зарегистрирован:  1 год 6 месяцев   |    .torrent скачан:  16 раз   |   
Раздают:  1  
   
загрузка...
 
Автор Сообщение

Galfimbul

avatar Galfimbul


<span class="post-font-serif1">Рождественская история / A Christmas Carol</span>

<span class="post-font-serif1">Год выпуска: 2009
Страна: США / ImageMovers, Walt Disney Pictures
Жанр: мультфильм, ужасы, фантастика, фэнтези, триллер, драма, комедия, семейный
Продолжительность: 01:35:48
Перевод №1: русский Профессиональный (полное дублирование) Blu-ray CEE Невафильм
Перевод №2: украинский Профессиональный (полное дублирование) Blu-ray CEE
Оригинальная дорожка: Есть
Cубтитры: русские (Forced, Full), украинские (Forced, Full), английские (Full, SDH)</span>
<span class="post-font-serif1">Режиссер: Роберт Земекис / Robert Zemeckis</span>
<span class="post-font-serif1">Роли озвучивали: Джим Керри, Гари Олдман, Колин Фёрт, Кэри Элвис, Робин Райт, Боб Хоскинс, Стив Валентайн, Дэрил Сабара, Сэйдж Райан, Эмбер Гейни Миде и другие .</span>
<span class="post-font-serif1">Роли дублировали: Александр Филиппенко, Андрей Лёвин, Вадим Романов, Максим Сергеев, Юрий Лазарев и другие .</span>
<span class="post-font-serif1">Описание: Это викторианская поучительная история о старом и ожесточившемся скупердяе Эбенезере Скрудже, который в течение одной ночи переживает испытание глубокого очищения. Мистер Скрудж — финансист/денежный меняла, который посвятил всю свою жизнь накоплению богатства. Он презирает всё, кроме денег, включая дружбу, любовь и рождественские праздники.</span>
<span class="post-font-serif1">Релиз группы </span>
<span class="post-font-serif1">Качество: HDRip / рип с BDRip 1080p
Формат: MP4
Видео кодек: H.264
Аудио кодек: AAC
Видео: 960x400 AR:2.40 1075 kbps 23.976 fps
Аудио №1: [Russian] 2ch 48 kHz 128 kbps - [Dub] Профессиональный (полное дублирование) Blu-ray CEE Невафильм
Аудио №2: [Ukrainian] 2ch 48 kHz 128 kbps - [Dub] Профессиональный (полное дублирование) Blu-ray CEE
Аудио №3: [English] 2ch 48 kHz 128 kbps - Оригинал (Английский)</span>
avs [info]: 960x400p 1:1 @ 2997/125 fps (cfr)
x264 [info]: using SAR=1/1
x264 [info]: using cpu capabilities: MMX2 SSE2Fast SSSE3 SSE4.2 AVX FMA3 AVX2 LZCNT BMI2
x264 [info]: profile High, level 4.1

x264 [info]: frame I:808 Avg QP:16.24 size: 47362
x264 [info]: frame P:35883 Avg QP:21.05 size: 11369
x264 [info]: frame B:101141 Avg QP:23.39 size: 3223
x264 [info]: consecutive B-frames: 4.3% 4.2% 14.8% 24.7% 16.3% 32.6% 2.2% 0.9%
x264 [info]: mb I I16..4: 8.9% 66.4% 24.7%
x264 [info]: mb P I16..4: 1.9% 9.1% 1.5% P16..4: 32.1% 31.8% 9.5% 0.0% 0.0% skip:14.1%
x264 [info]: mb B I16..4: 0.2% 1.5% 0.2% B16..8: 31.6% 12.5% 1.9% direct: 2.7% skip:49.3% L0:40.3% L1:48.9% BI:10.8%
x264 [info]: 8x8 transform intra:72.7% inter:58.5%
x264 [info]: direct mvs spatial:91.0% temporal:9.0%
x264 [info]: coded y,uvDC,uvAC intra: 71.2% 58.9% 24.5% inter: 13.2% 8.5% 2.8%
x264 [info]: i16 v,h,dc,p: 17% 16% 6% 61%
x264 [info]: i8 v,h,dc,ddl,ddr,vr,hd,vl,hu: 7% 8% 8% 9% 13% 12% 15% 11% 16%
x264 [info]: i4 v,h,dc,ddl,ddr,vr,hd,vl,hu: 9% 10% 9% 8% 14% 12% 14% 10% 14%
x264 [info]: i8c dc,h,v,p: 28% 37% 19% 15%
x264 [info]: Weighted P-Frames: Y:6.2% UV:3.5%
x264 [info]: ref P L0: 59.4% 11.4% 12.2% 5.1% 3.6% 3.3% 2.7% 2.0% 0.4% 0.0%
x264 [info]: ref B L0: 85.3% 7.0% 3.4% 1.5% 1.2% 1.1% 0.5%
x264 [info]: ref B L1: 96.5% 3.5%
x264 [info]: kb/s:1074.63

encoded 137832 frames, 19.84 fps, 1074.63 kb/s
GeneralComplete name : D:\Torrents\A Christmas Carol.2009.HDRip.x264.960x.rip by Frost O.S.mp4Format : MPEG-4Format profile : Base MediaCodec ID : isom (isom/avc1/iso2)File size : 1 010 MiBDuration : 1 h 35 minOverall bit rate mode : VariableOverall bit rate : 1 474 kb/sMovie name : A Christmas Carol 2009 HDRip x264 960x rip by Frost O SGenre : AnimationContentType : Short FilmEncoded date : UTC 2016-12-22 15:35:10Tagged date : UTC 2016-12-22 15:36:40Writing application : MkvToMp4 version: 0.224 (x64)Cover : YesComment : rip by Frost O.S

VideoID : 1Format : AVCFormat/Info : Advanced Video CodecFormat profile : [email protected] settings, CABAC : YesFormat settings, ReFrames : 8 framesCodec ID : avc1Codec ID/Info : Advanced Video CodingDuration : 1 h 35 minBit rate : 1 075 kb/sMaximum bit rate : 6 885 kb/sWidth : 960 pixelsHeight : 400 pixelsDisplay aspect ratio : 2.40:1Frame rate mode : ConstantFrame rate : 23.976 (24000/1001) FPSOriginal frame rate : 23.976 (23976/1000) FPSColor space : YUVChroma subsampling : 4:2:0Bit depth : 8 bitsScan type : ProgressiveBits/(Pixel*Frame) : 0.117Stream size : 736 MiB (73%)Writing library : x264 core 148 r2705 3f5ed56Encoding settings : cabac=1 / ref=8 / deblock=1:-2:-1 / analyse=0x3:0x113 / me=umh / subme=11 / psy=1 / psy_rd=0.90:0.00 / mixed_ref=1 / me_range=32 / chroma_me=1 / trellis=2 / 8x8dct=1 / cqm=0 / deadzone=21,11 / fast_pskip=0 / chroma_qp_offset=-2 / threads=6 / lookahead_threads=1 / sliced_threads=0 / nr=0 / decimate=0 / interlaced=0 / bluray_compat=0 / constrained_intra=0 / bframes=7 / b_pyramid=2 / b_adapt=2 / b_bias=0 / direct=3 / weightb=1 / open_gop=0 / weightp=2 / keyint=250 / keyint_min=23 / scenecut=40 / intra_refresh=0 / rc_lookahead=40 / rc=2pass / mbtree=1 / bitrate=1075 / ratetol=1.0 / qcomp=0.70 / qpmin=0 / qpmax=69 / qpstep=4 / cplxblur=20.0 / qblur=0.5 / ip_ratio=1.40 / aq=1:0.90Language : EnglishEncoded date : UTC 2016-12-22 15:35:10Tagged date : UTC 2016-12-22 15:35:41Color range : LimitedColor primaries : BT.709Transfer characteristics : BT.709Matrix coefficients : BT.709

Audio #1ID : 2Format : AACFormat/Info : Advanced Audio CodecFormat profile : LCCodec ID : 40Duration : 1 h 35 minBit rate mode : VariableBit rate : 128 kb/sMaximum bit rate : 135 kb/sChannel(s) : 2 channelsChannel positions : Front: L RSampling rate : 48.0 kHzFrame rate : 46.875 FPS (1024 spf)Compression mode : LossyStream size : 87.7 MiB (9%)Title : Dub_ Blu_ray CEE / Dub_ Blu_ray CEELanguage : RussianDefault : YesAlternate group : 1Encoded date : UTC 2016-12-22 15:35:21Tagged date : UTC 2016-12-22 15:35:41

Audio #2ID : 3Format : AACFormat/Info : Advanced Audio CodecFormat profile : LCCodec ID : 40Duration : 1 h 35 minBit rate mode : VariableBit rate : 128 kb/sMaximum bit rate : 135 kb/sChannel(s) : 2 channelsChannel positions : Front: L RSampling rate : 48.0 kHzFrame rate : 46.875 FPS (1024 spf)Compression mode : LossyStream size : 87.7 MiB (9%)Title : Dub_ Blu_ray CEE / Dub_ Blu_ray CEELanguage : UkrainianDefault : NoAlternate group : 1Encoded date : UTC 2016-12-22 15:35:30Tagged date : UTC 2016-12-22 15:35:41

Audio #3ID : 4Format : AACFormat/Info : Advanced Audio CodecFormat profile : LCCodec ID : 40Duration : 1 h 35 minBit rate mode : VariableBit rate : 128 kb/sMaximum bit rate : 135 kb/sChannel(s) : 2 channelsChannel positions : Front: L RSampling rate : 48.0 kHzFrame rate : 46.875 FPS (1024 spf)Compression mode : LossyStream size : 87.7 MiB (9%)Title : Original / OriginalLanguage : EnglishDefault : NoAlternate group : 1Encoded date : UTC 2016-12-22 15:35:35Tagged date : UTC 2016-12-22 15:35:41

Text #1ID : 5Format : Timed TextMuxing mode : sbtlCodec ID : tx3gDuration : 1 h 30 minBit rate mode : VariableBit rate : 1 b/sStream size : 625 Bytes (0%)Title : Forced / ForcedLanguage : RussianDefault : YesForced : NoAlternate group : 2Encoded date : UTC 2016-12-22 15:35:41Tagged date : UTC 2016-12-22 15:35:41

Text #2ID : 6Format : Timed TextMuxing mode : sbtlCodec ID : tx3gDuration : 1 h 30 minBit rate mode : VariableBit rate : 69 b/sStream size : 45.8 KiB (0%)Title : Full / FullLanguage : RussianDefault : NoForced : NoAlternate group : 2Encoded date : UTC 2016-12-22 15:35:41Tagged date : UTC 2016-12-22 15:35:41

Text #3ID : 7Format : Timed TextMuxing mode : sbtlCodec ID : tx3gDuration : 1 h 30 minBit rate mode : VariableBit rate : 1 b/sStream size : 674 Bytes (0%)Title : Forced / ForcedLanguage : UkrainianDefault : NoForced : NoAlternate group : 2Encoded date : UTC 2016-12-22 15:35:41Tagged date : UTC 2016-12-22 15:35:41

Text #4ID : 8Format : Timed TextMuxing mode : sbtlCodec ID : tx3gDuration : 1 h 30 minBit rate mode : VariableBit rate : 58 b/sStream size : 38.6 KiB (0%)Title : Full / FullLanguage : UkrainianDefault : NoForced : NoAlternate group : 2Encoded date : UTC 2016-12-22 15:35:41Tagged date : UTC 2016-12-22 15:35:41

Text #5ID : 9Format : Timed TextMuxing mode : sbtlCodec ID : tx3gDuration : 1 h 29 minBit rate mode : VariableBit rate : 42 b/sStream size : 27.4 KiB (0%)Title : Full / FullLanguage : EnglishDefault : NoForced : NoAlternate group : 2Encoded date : UTC 2016-12-22 15:35:41Tagged date : UTC 2016-12-22 15:35:41

Text #6ID : 10Format : Timed TextMuxing mode : sbtlCodec ID : tx3gDuration : 1 h 30 minBit rate mode : VariableBit rate : 52 b/sStream size : 34.6 KiB (0%)Title : SDH / SDHLanguage : EnglishDefault : NoForced : NoAlternate group : 2Encoded date : UTC 2016-12-22 15:35:41Tagged date : UTC 2016-12-22 15:35:41


Трекер:  [ 22-Дек-2016 18:30 ]

  

Скачать .torrent

Размер .torrent файла 20 KB


Размер: 1010 MB
Хэш (hash) релиза: d321b9faf2271c07200daf51420b792833471ffa

Еще никто не оставлял запись к записи скачать торрент [MULT] Рождественская история A Christmas Carol . Будь первым!

!Обратная связь