Domin Profundo. Estrategias y Tcticas PDF | Dagashi Kashi | The Grand Gesture

Скачать через торрент [MULT] Рождественская история A Christmas Carol бесплатно русская версия torrent активатор

Статистика раздачи
Размер:  364 MB   |    Зарегистрирован:  1 год 6 месяцев   |    .torrent скачан:  12 раз   |   
Раздают:  1  
   
загрузка...
 
Автор Сообщение

Galfimbul

avatar Galfimbul


<span class="post-font-serif1">Рождественская история / A Christmas Carol</span>

<span class="post-font-serif1">Год выпуска: 2009
Страна: США / ImageMovers, Walt Disney Pictures
Жанр: мультфильм, ужасы, фантастика, фэнтези, триллер, драма, комедия, семейный
Продолжительность: 01:35:48
Перевод: русский Профессиональный (полное дублирование) Blu-ray CEE Невафильм
Cубтитры: нет</span>
<span class="post-font-serif1">Режиссер: Роберт Земекис / Robert Zemeckis</span>
<span class="post-font-serif1">Роли озвучивали: Джим Керри, Гари Олдман, Колин Фёрт, Кэри Элвис, Робин Райт, Боб Хоскинс, Стив Валентайн, Дэрил Сабара, Сэйдж Райан, Эмбер Гейни Миде и другие .</span>
<span class="post-font-serif1">Роли дублировали: Александр Филиппенко, Андрей Лёвин, Вадим Романов, Максим Сергеев, Юрий Лазарев и другие .</span>
<span class="post-font-serif1">Описание: Это викторианская поучительная история о старом и ожесточившемся скупердяе Эбенезере Скрудже, который в течение одной ночи переживает испытание глубокого очищения. Мистер Скрудж — финансист/денежный меняла, который посвятил всю свою жизнь накоплению богатства. Он презирает всё, кроме денег, включая дружбу, любовь и рождественские праздники.</span>
<span class="post-font-serif1">Релиз группы </span>
<span class="post-font-serif1">Качество: HDRip / рип с BDRip 1080p
Формат: MP4
Видео кодек: XviD
Аудио кодек: AAC
Видео: 480x200 AR:2.40 395 kbps 23.976 fps
Аудио: [Russian] 2ch 48 kHz 128 kbps - [Dub] Профессиональный (полное дублирование) Blu-ray CEE Невафильм</span>
GeneralComplete name : D:\Torrents\A Christmas Carol.2009.HDRip.XviD.480x.rip by Frost O.S.mp4Format : MPEG-4Format profile : Base MediaCodec ID : isom (isom/iso2)File size : 364 MiBDuration : 1 h 35 minOverall bit rate mode : VariableOverall bit rate : 531 kb/sMovie name : A Christmas Carol 2009 HDRip XviD 480x rip by Frost O SGenre : AnimationContentType : Short FilmEncoded date : UTC 2016-12-22 15:43:51Tagged date : UTC 2016-12-22 15:44:13Writing application : MkvToMp4 version: 0.224 (x64)Cover : YesComment : rip by Frost O.S

VideoID : 1Format : MPEG-4 VisualFormat profile : Advanced [email protected] settings, BVOP : YesFormat settings, QPel : NoFormat settings, GMC : No warppointsFormat settings, Matrix : CustomCodec ID : 20Duration : 1 h 35 minBit rate mode : VariableBit rate : 395 kb/sMaximum bit rate : 3 726 kb/sWidth : 480 pixelsHeight : 200 pixelsDisplay aspect ratio : 2.40:1Frame rate mode : ConstantFrame rate : 23.976 (24000/1001) FPSOriginal frame rate : 23.976 (23976/1000) FPSColor space : YUVChroma subsampling : 4:2:0Bit depth : 8 bitsScan type : ProgressiveCompression mode : LossyBits/(Pixel*Frame) : 0.172Stream size : 271 MiB (74%)Title : avi_GPAC0.5.2_DEV_rev248_g39d5978_masterWriting library : XviD 1.2.1 (UTC 2008-12-04)Language : EnglishTagged date : UTC 2016-12-22 15:43:57

AudioID : 2Format : AACFormat/Info : Advanced Audio CodecFormat profile : LCCodec ID : 40Duration : 1 h 35 minBit rate mode : VariableBit rate : 128 kb/sMaximum bit rate : 135 kb/sChannel(s) : 2 channelsChannel positions : Front: L RSampling rate : 48.0 kHzFrame rate : 46.875 FPS (1024 spf)Compression mode : LossyStream size : 87.7 MiB (24%)Title : Dub_ Blu_ray CEE / Dub_ Blu_ray CEELanguage : RussianDefault : YesAlternate group : 1Encoded date : UTC 2016-12-22 15:43:54Tagged date : UTC 2016-12-22 15:43:57


Трекер:  [ 22-Дек-2016 18:30 ]

  

Скачать .torrent

Размер .torrent файла 14 KB


Размер: 364 MB
Хэш (hash) релиза: 2ebdf6ff4b27b96e2c55a41366726eb58ac713db

Еще никто не оставлял запись к записи скачать торрент [MULT] Рождественская история A Christmas Carol . Будь первым!

!Обратная связь