Steven Heller, "Becoming a Digital Designer: A Guide to Careers in Web, Video,Broadcast, Game and Animation Design" | The Crossing (2018) | Sibel Kekilli

Скачать через торрент [VIDEO] Пришельцы 3: Взятие Бастилии Les Visiteurs: La Révolution бесплатно русская версия torrent активатор

Статистика раздачи
Размер:  1.25 GB   |    Зарегистрирован:  1 год 6 месяцев   |    .torrent скачан:  21 раз   |   
Раздают:  1  
   
загрузка...
 
Автор Сообщение

Galfimbul

avatar Galfimbul


<span class="post-font-serif1">Пришельцы 3: Взятие Бастилии / Les Visiteurs: La Révolution</span>

<span class="post-font-serif1">Год выпуска: 2016
Страна: Франция
Жанр: комедия
Продолжительность: 01:49:29
Перевод: Профессиональный (полное дублирование) Лицензия
Cубтитры: нет</span>
<span class="post-font-serif1">Режиссеры: Жан-Мари Пуаре / Jean-Marie Poiré</span>
<span class="post-font-serif1">В ролях: Кристиан Клавье, Жан Рено, Франк Дюбоск, Карин Вьяр, Сильви Тестю, Мари-Анн Шазель, Эри Абиттан, Алекс Лутс, Стефани де Крэенкур, Вероника Буланжер и другие .</span>
<span class="post-font-serif1">Описание: В третьей части граф с оруженосцем отправляются в самое сложное для Франции время — период Французской революции.</span>

<span class="post-font-serif1">Качество: HDRip / рип с BDRip 720p (Кинозал.ТВ)
Формат: MP4
Видео кодек: H.264
Аудио кодек: AAC
Видео: 960x402 AR:2.40 1495 kbps 24 fps
Аудио: [Русский] 2ch 48 kHz 128 kbps - [Dub] Лицензия</span>
avs [info]: 960x402p 1:1 @ 24/1 fps (cfr)
x264 [info]: using SAR=1/1
x264 [info]: using cpu capabilities: MMX2 SSE2Fast SSSE3 SSE4.2 AVX FMA3 AVX2 LZCNT BMI2
x264 [info]: profile High, level 4.1

x264 [info]: frame I:2649 Avg QP:18.70 size: 60445
x264 [info]: frame P:38719 Avg QP:22.92 size: 14822
x264 [info]: frame B:116302 Avg QP:25.59 size: 4242
x264 [info]: consecutive B-frames: 5.7% 3.8% 9.1% 21.8% 14.9% 37.4% 4.6% 1.4% 1.2% 0.2%
x264 [info]: mb I I16..4: 7.4% 65.8% 26.7%
x264 [info]: mb P I16..4: 0.7% 6.9% 2.2% P16..4: 33.2% 32.5% 10.0% 0.0% 0.0% skip:14.5%
x264 [info]: mb B I16..4: 0.1% 1.0% 0.3% B16..8: 34.9% 14.9% 2.4% direct: 2.9% skip:43.6% L0:42.1% L1:46.5% BI:11.4%
x264 [info]: 8x8 transform intra:68.7% inter:60.5%
x264 [info]: direct mvs spatial:98.2% temporal:1.8%
x264 [info]: coded y,uvDC,uvAC intra: 82.0% 81.1% 51.9% inter: 16.6% 13.2% 3.8%
x264 [info]: i16 v,h,dc,p: 36% 12% 4% 48%
x264 [info]: i8 v,h,dc,ddl,ddr,vr,hd,vl,hu: 16% 6% 6% 10% 14% 14% 12% 12% 11%
x264 [info]: i4 v,h,dc,ddl,ddr,vr,hd,vl,hu: 29% 5% 5% 8% 12% 12% 10% 10% 9%
x264 [info]: i8c dc,h,v,p: 31% 22% 28% 19%
x264 [info]: Weighted P-Frames: Y:2.5% UV:1.0%
x264 [info]: ref P L0: 55.9% 14.1% 13.2% 5.3% 3.9% 3.2% 2.3% 1.7% 0.4% 0.0%
x264 [info]: ref B L0: 83.4% 8.1% 4.2% 1.8% 1.3% 0.8% 0.4%
x264 [info]: ref B L1: 95.7% 4.3%
x264 [info]: kb/s:1494.61

encoded 157670 frames, 16.21 fps, 1494.61 kb/s

GeneralComplete name : D:\Torrents\Prishelcy 3 Vzyatie Bastilii.2016.HDRip.x264.960x.rip by Frost O.S.mp4Format : MPEG-4Format profile : Base MediaCodec ID : isom (isom/avc1/iso2)File size : 1.25 GiBDuration : 1 h 49 minOverall bit rate mode : VariableOverall bit rate : 1 630 kb/sMovie name : Prishelcy 3 Vzyatie Bastilii 2016 HDRip x264 960x rip by Frost O SGenre : ComedyContentType : Short FilmEncoded date : UTC 2016-12-22 10:46:50Tagged date : UTC 2016-12-22 10:47:52Writing application : MkvToMp4 version: 0.224 (x64)Cover : YesComment : rip by Frost O.S

VideoID : 1Format : AVCFormat/Info : Advanced Video CodecFormat profile : [email protected] settings, CABAC : YesFormat settings, ReFrames : 8 framesCodec ID : avc1Codec ID/Info : Advanced Video CodingDuration : 1 h 49 minBit rate : 1 495 kb/sMaximum bit rate : 12.8 Mb/sWidth : 960 pixelsHeight : 402 pixelsDisplay aspect ratio : 2.40:1Frame rate mode : ConstantFrame rate : 24.000 FPSColor space : YUVChroma subsampling : 4:2:0Bit depth : 8 bitsScan type : ProgressiveBits/(Pixel*Frame) : 0.161Stream size : 1.14 GiB (92%)Writing library : x264 core 148 r2705 3f5ed56Encoding settings : cabac=1 / ref=8 / deblock=1:-2:-2 / analyse=0x3:0x113 / me=umh / subme=11 / psy=1 / psy_rd=1.00:0.00 / mixed_ref=1 / me_range=32 / chroma_me=1 / trellis=2 / 8x8dct=1 / cqm=0 / deadzone=21,11 / fast_pskip=0 / chroma_qp_offset=-2 / threads=6 / lookahead_threads=1 / sliced_threads=0 / nr=0 / decimate=0 / interlaced=0 / bluray_compat=0 / constrained_intra=0 / bframes=9 / b_pyramid=2 / b_adapt=2 / b_bias=0 / direct=3 / weightb=1 / open_gop=0 / weightp=2 / keyint=250 / keyint_min=24 / scenecut=40 / intra_refresh=0 / rc_lookahead=40 / rc=2pass / mbtree=1 / bitrate=1495 / ratetol=1.0 / qcomp=0.70 / qpmin=0 / qpmax=69 / qpstep=4 / cplxblur=20.0 / qblur=0.5 / ip_ratio=1.40 / aq=1:0.80Language : EnglishEncoded date : UTC 2016-12-22 10:46:50Tagged date : UTC 2016-12-22 10:47:12Color range : LimitedColor primaries : BT.709Transfer characteristics : BT.709Matrix coefficients : BT.709

AudioID : 2Format : AACFormat/Info : Advanced Audio CodecFormat profile : LCCodec ID : 40Duration : 1 h 49 minBit rate mode : VariableBit rate : 128 kb/sMaximum bit rate : 135 kb/sChannel(s) : 2 channelsChannel positions : Front: L RSampling rate : 48.0 kHzFrame rate : 46.875 FPS (1024 spf)Compression mode : LossyStream size : 100 MiB (8%)Title : Dub_ Licenziya / Dub_ LicenziyaLanguage : RussianDefault : YesAlternate group : 1Encoded date : UTC 2016-12-22 10:47:05Tagged date : UTC 2016-12-22 10:47:12


Трекер:  [ 22-Дек-2016 13:00 ]

  

Скачать .torrent

Размер .torrent файла 13 KB


Размер: 1.25 GB
Хэш (hash) релиза: b91e587e51f3eca9989d1ab59a4022dfc556f2f4

Торренты, похожие на [VIDEO] Пришельцы 3: Взятие Бастилии Les Visiteurs: La Révolution скачать торрент

Форум Название Автор Размер S L Добавлен
Видео (Фильмы/Клипы) ·· [VIDEO] Пришельцы 3: Взятие Бастилии / Les Visiteurs: La Révolution (Жан-Мари Пуаре / Jean-Marie Poiré) [2016, комедия, HDRip] [MP4, 480x] Dub Galfimbul 521172760497 MB 0 0 1482404841

14:07

22-Дек-16

Еще никто не оставлял запись к записи скачать торрент [VIDEO] Пришельцы 3: Взятие Бастилии Les Visiteurs: La Révolution . Будь первым!

!Обратная связь