Show Everything | Download Ayo and Teo mp3 | Trailer Ibiza

Скачать через торрент [VIDEO] Пришельцы 3: Взятие Бастилии Les Visiteurs: La Révolution бесплатно русская версия torrent активатор

Статистика раздачи
Размер:  497 MB   |    Зарегистрирован:  1 год 6 месяцев   |    .torrent скачан:  18 раз   |   
Раздают:  1  
   
загрузка...
 
Автор Сообщение

Galfimbul

avatar Galfimbul


<span class="post-font-serif1">Пришельцы 3: Взятие Бастилии / Les Visiteurs: La Révolution</span>

<span class="post-font-serif1">Год выпуска: 2016
Страна: Франция
Жанр: комедия
Продолжительность: 01:49:29
Перевод: Профессиональный (полное дублирование) Лицензия
Cубтитры: нет</span>
<span class="post-font-serif1">Режиссеры: Жан-Мари Пуаре / Jean-Marie Poiré</span>
<span class="post-font-serif1">В ролях: Кристиан Клавье, Жан Рено, Франк Дюбоск, Карин Вьяр, Сильви Тестю, Мари-Анн Шазель, Эри Абиттан, Алекс Лутс, Стефани де Крэенкур, Вероника Буланжер и другие .</span>
<span class="post-font-serif1">Описание: В третьей части граф с оруженосцем отправляются в самое сложное для Франции время — период Французской революции.</span>

<span class="post-font-serif1">Качество: HDRip / рип с BDRip 720p (Кинозал.ТВ)
Формат: MP4
Видео кодек: XviD
Аудио кодек: AAC
Видео: 480x200 AR:2.40 499 kbps 24 fps
Аудио: [Русский] 2ch 48 kHz 128 kbps - [Dub] Лицензия</span>
GeneralComplete name : D:\Torrents\Prishelcy 3 Vzyatie Bastilii.2016.HDRip.XviD.480x.rip by Frost O.S.mp4Format : MPEG-4Format profile : Base MediaCodec ID : isom (isom/iso2)File size : 497 MiBDuration : 1 h 49 minOverall bit rate mode : VariableOverall bit rate : 635 kb/sMovie name : Prishelcy 3 Vzyatie Bastilii 2016 HDRip XviD 480x rip by Frost O SGenre : ComedyContentType : Short FilmEncoded date : UTC 2016-12-22 10:49:50Tagged date : UTC 2016-12-22 10:50:07Writing application : MkvToMp4 version: 0.224 (x64)Cover : YesComment : rip by Frost O.S

VideoID : 1Format : MPEG-4 VisualFormat profile : Advanced [email protected] settings, BVOP : YesFormat settings, QPel : NoFormat settings, GMC : No warppointsFormat settings, Matrix : CustomCodec ID : 20Duration : 1 h 49 minBit rate mode : VariableBit rate : 499 kb/sMaximum bit rate : 2 654 kb/sWidth : 480 pixelsHeight : 200 pixelsDisplay aspect ratio : 2.40:1Frame rate mode : VariableFrame rate : 24.000 FPSMinimum frame rate : 12.000 FPSMaximum frame rate : 24.000 FPSColor space : YUVChroma subsampling : 4:2:0Bit depth : 8 bitsScan type : ProgressiveCompression mode : LossyBits/(Pixel*Frame) : 0.217Stream size : 391 MiB (79%)Title : avi_GPAC0.5.2_DEV_rev248_g39d5978_masterWriting library : XviD 1.2.1 (UTC 2008-12-04)Language : EnglishTagged date : UTC 2016-12-22 10:49:55

AudioID : 2Format : AACFormat/Info : Advanced Audio CodecFormat profile : LCCodec ID : 40Duration : 1 h 49 minBit rate mode : VariableBit rate : 128 kb/sMaximum bit rate : 135 kb/sChannel(s) : 2 channelsChannel positions : Front: L RSampling rate : 48.0 kHzFrame rate : 46.875 FPS (1024 spf)Compression mode : LossyStream size : 100 MiB (20%)Title : Dub_ Licenziya / Dub_ LicenziyaLanguage : RussianDefault : YesAlternate group : 1Encoded date : UTC 2016-12-22 10:49:53Tagged date : UTC 2016-12-22 10:49:55


Трекер:  [ 22-Дек-2016 13:00 ]

  

Скачать .torrent

Размер .torrent файла 20 KB


Размер: 497 MB
Хэш (hash) релиза: 6916ec46671999e975cf3357608a81783cc305b8

Торренты, похожие на [VIDEO] Пришельцы 3: Взятие Бастилии Les Visiteurs: La Révolution скачать торрент

Форум Название Автор Размер S L Добавлен
Видео (Фильмы/Клипы) ·· [VIDEO] Пришельцы 3: Взятие Бастилии / Les Visiteurs: La Révolution (Жан-Мари Пуаре / Jean-Marie Poiré) [2016, комедия, HDRip] [MP4, 960x] Dub Galfimbul 13387031141.25 GB 0 0 1482404845

14:07

22-Дек-16

Еще никто не оставлял запись к записи скачать торрент [VIDEO] Пришельцы 3: Взятие Бастилии Les Visiteurs: La Révolution . Будь первым!

!Обратная связь