ver Nico 1988 2017 megashare línea gratis | Papa no Iukoto o Kikinasai | Pasiones lesbicas españolas

Скачать через торрент [VIDEO] Вопль Плач бесплатно русская версия torrent активатор

Статистика раздачи
Размер:  1.38 GB   |    Зарегистрирован:  1 год 7 месяцев   |    .torrent скачан:  28 раз   |   
Раздают:  1  
   
загрузка...
 
Автор Сообщение

Galfimbul

avatar Galfimbul


<span class="post-font-serif1">Вопль / Плач / The Wailing / Goksung</span>

<span class="post-font-serif1">Год выпуска: 2016
Страна: Южная Корея / 20th Century Fox, Ivanhoe Pictures, Side Mirror
Жанр: триллер, драма, фэнтези
Продолжительность:
Перевод: Любительский (двухголосый, закадровый) DeadSno & den904
Оригинальная дорожка: Есть
Cубтитры: русские, английские (softsub)</span>
<span class="post-font-serif1">Режиссеры: На Хон-джин / Na Hong-jin</span>
<span class="post-font-serif1">В ролях: Квак То-вон, Хван Джон-мин, Дзюн Кунимура, Чхон У-хи, Ким Хван-хи, Чан Со-ён, Чо Хан-чхоль, Чхве Гви-хва, Ли Чхан-хун, Ю Сун-ун, Ли Ён-нё, Ким Ги-чхон, Хван Сок-чон и другие .</span>
<span class="post-font-serif1">Описание: В отдаленной лесной деревне Коксон происходят ужасные вещи — люди вдруг покрываются язвами, странно себя ведут и даже нападают на своих родных. Уже произошло несколько убийств. Полиция в растерянности. Судя по слухам, виноваты то ли какие-то ядовитые грибы, то ли приезжий японец. Местный полицейский Чон-гу смотрит на происходящее довольно отстранённо, но ровно до тех пор, пока этот кошмар не касается его дочери.</span>

<span class="post-font-serif1">Качество: HDRip / <a href="viewtopic.php?t=5294030" class="postLink">рип с BDRip 720p</a>
Формат: MP4
Видео кодек: H.264
Аудио кодек: AAC
Видео: 960x400 AR:2.40 1000 kbps 24 fps
Аудио №1: [Русский] 2ch 48 kHz 128 kbps - [DVO] DeadSno & den904
Аудио №2: [Корейский] 2ch 48 kHz 128 kbps - [Оригинал]</span>
avs [info]: 960x400p 1:1 @ 24/1 fps (cfr)
x264 [info]: using SAR=1/1
x264 [info]: using cpu capabilities: MMX2 SSE2Fast SSSE3 SSE4.2 AVX FMA3 AVX2 LZCNT BMI2
x264 [info]: profile High, level 4.1

x264 [info]: frame I:1967 Avg QP:17.42 size: 53914
x264 [info]: frame P:46144 Avg QP:21.42 size: 11793
x264 [info]: frame B:176726 Avg QP:22.26 size: 2937
x264 [info]: consecutive B-frames: 2.8% 2.8% 5.9% 12.0% 14.2% 41.1% 9.7% 2.0% 2.5% 1.9% 2.0% 3.2%
x264 [info]: mb I I16..4: 4.7% 77.3% 18.0%
x264 [info]: mb P I16..4: 0.6% 5.1% 0.8% P16..4: 35.8% 36.7% 11.6% 0.0% 0.0% skip: 9.4%
x264 [info]: mb B I16..4: 0.0% 0.4% 0.1% B16..8: 33.1% 14.2% 2.0% direct: 2.6% skip:47.6% L0:44.8% L1:48.4% BI: 6.8%
x264 [info]: 8x8 transform intra:77.8% inter:60.6%
x264 [info]: direct mvs spatial:97.9% temporal:2.1%
x264 [info]: coded y,uvDC,uvAC intra: 84.4% 80.6% 51.8% inter: 14.1% 11.5% 4.2%
x264 [info]: i16 v,h,dc,p: 20% 13% 6% 61%
x264 [info]: i8 v,h,dc,ddl,ddr,vr,hd,vl,hu: 7% 5% 5% 11% 17% 15% 15% 12% 13%
x264 [info]: i4 v,h,dc,ddl,ddr,vr,hd,vl,hu: 9% 6% 4% 10% 16% 15% 15% 12% 13%
x264 [info]: i8c dc,h,v,p: 39% 24% 18% 20%
x264 [info]: Weighted P-Frames: Y:10.2% UV:6.9%
x264 [info]: ref P L0: 48.9% 9.7% 17.0% 6.6% 5.5% 4.2% 3.8% 2.0% 2.0% 0.3% 0.0%
x264 [info]: ref B L0: 69.8% 12.4% 7.2% 3.6% 2.8% 2.3% 1.5% 0.4%
x264 [info]: ref B L1: 93.2% 6.8%
x264 [info]: kb/s:998.51

encoded 224837 frames, 17.86 fps, 998.51 kb/s

GeneralComplete name : D:\Torrents\Goksung.2016.HDRip.x264.960x.rip by Frost O.S.mp4Format : MPEG-4Format profile : Base MediaCodec ID : isom (isom/avc1/iso2)File size : 1.38 GiBDuration : 2 h 36 minOverall bit rate mode : VariableOverall bit rate : 1 264 kb/sMovie name : Goksung 2016 HDRip x264 960x rip by Frost O SContentType : Short FilmEncoded date : UTC 2016-12-21 18:09:58Tagged date : UTC 2016-12-21 18:13:15Writing application : MkvToMp4 version: 0.224 (x64)Cover : YesComment : rip by Frost O.S

VideoID : 1Format : AVCFormat/Info : Advanced Video CodecFormat profile : [email protected] settings, CABAC : YesFormat settings, ReFrames : 9 framesCodec ID : avc1Codec ID/Info : Advanced Video CodingDuration : 2 h 36 minBit rate : 1 000 kb/sMaximum bit rate : 6 543 kb/sWidth : 960 pixelsHeight : 400 pixelsDisplay aspect ratio : 2.40:1Frame rate mode : ConstantFrame rate : 24.000 FPSColor space : YUVChroma subsampling : 4:2:0Bit depth : 8 bitsScan type : ProgressiveBits/(Pixel*Frame) : 0.109Stream size : 1.09 GiB (79%)Writing library : x264 core 148 r2705 3f5ed56Encoding settings : cabac=1 / ref=9 / deblock=1:-2:-2 / analyse=0x3:0x113 / me=umh / subme=11 / psy=1 / psy_rd=1.00:0.00 / mixed_ref=1 / me_range=32 / chroma_me=1 / trellis=2 / 8x8dct=1 / cqm=0 / deadzone=21,11 / fast_pskip=0 / chroma_qp_offset=-2 / threads=6 / lookahead_threads=1 / sliced_threads=0 / nr=0 / decimate=0 / interlaced=0 / bluray_compat=0 / constrained_intra=0 / bframes=11 / b_pyramid=2 / b_adapt=2 / b_bias=0 / direct=3 / weightb=1 / open_gop=0 / weightp=2 / keyint=250 / keyint_min=24 / scenecut=40 / intra_refresh=0 / rc=2pass / mbtree=0 / bitrate=1000 / ratetol=1.0 / qcomp=0.60 / qpmin=0 / qpmax=69 / qpstep=4 / cplxblur=20.0 / qblur=0.5 / ip_ratio=1.40 / pb_ratio=1.30 / aq=1:0.80Language : EnglishEncoded date : UTC 2016-12-21 18:09:58Tagged date : UTC 2016-12-21 18:11:27Color range : LimitedColor primaries : BT.709Transfer characteristics : BT.709Matrix coefficients : BT.709

Audio #1ID : 2Format : AACFormat/Info : Advanced Audio CodecFormat profile : LCCodec ID : 40Duration : 2 h 36 minBit rate mode : VariableBit rate : 128 kb/sMaximum bit rate : 135 kb/sChannel(s) : 2 channelsChannel positions : Front: L RSampling rate : 48.0 kHzFrame rate : 46.875 FPS (1024 spf)Compression mode : LossyStream size : 143 MiB (10%)Title : DVO_ DeadSno _ den904 / DVO_ DeadSno _ den904Language : RussianDefault : YesAlternate group : 1Encoded date : UTC 2016-12-21 18:11:01Tagged date : UTC 2016-12-21 18:11:27

Audio #2ID : 3Format : AACFormat/Info : Advanced Audio CodecFormat profile : LCCodec ID : 40Duration : 2 h 36 minBit rate mode : VariableBit rate : 128 kb/sMaximum bit rate : 135 kb/sChannel(s) : 2 channelsChannel positions : Front: L RSampling rate : 48.0 kHzFrame rate : 46.875 FPS (1024 spf)Compression mode : LossyStream size : 143 MiB (10%)Title : Original / OriginalLanguage : KoreanDefault : NoAlternate group : 1Encoded date : UTC 2016-12-21 18:11:14Tagged date : UTC 2016-12-21 18:11:27

Text #1ID : 4Format : Timed TextMuxing mode : sbtlCodec ID : tx3gDuration : 2 h 30 minBit rate mode : VariableBit rate : 41 b/sStream size : 44.8 KiB (0%)Title : Full / FullLanguage : RussianDefault : YesForced : NoAlternate group : 2Encoded date : UTC 2016-12-21 18:11:27Tagged date : UTC 2016-12-21 18:11:27

Text #2ID : 5Format : Timed TextMuxing mode : sbtlCodec ID : tx3gDuration : 2 h 30 minBit rate mode : VariableBit rate : 30 b/sStream size : 33.5 KiB (0%)Title : Full / FullLanguage : EnglishDefault : NoForced : NoAlternate group : 2Encoded date : UTC 2016-12-21 18:11:27Tagged date : UTC 2016-12-21 18:11:27


Трекер:  [ 21-Дек-2016 20:30 ]

  

Скачать .torrent

Размер .torrent файла 14 KB


Размер: 1.38 GB
Хэш (hash) релиза: 532e1f9eb6f17ea625d7ce0569b181ba936fb9cd

Торренты, похожие на [VIDEO] Вопль Плач скачать торрент

Форум Название Автор Размер S L Добавлен
Видео (Фильмы/Клипы) ·· [VIDEO] Вопль / Плач / The Wailing / Goksung (На Хон-джин / Na Hong-jin) [2016, драма, фэнтези, HDRip] [MP4, 480x] DVO DeadSno & den904 Galfimbul 626420377597 MB 0 0 1482345523

21:38

21-Дек-16

Видео (Фильмы/Клипы) ·· [VIDEO] Вопль / Плач / The Wailing / Goksung (На Хон-джин / Na Hong-jin) [2016, драма, фэнтези, HDRip] [3GP, 320x] DVO DeadSno & den904 Galfimbul 562803603537 MB 0 0 1482343809

21:10

21-Дек-16

Еще никто не оставлял запись к записи скачать торрент [VIDEO] Вопль Плач . Будь первым!

!Обратная связь