Playlist
Adele - 19 (2008) [FLAC] {Expanded Edition 2CD}

Скачать через торрент [VIDEO] Вопль Плач бесплатно русская версия torrent активатор

Статистика раздачи
Размер:  597 MB   |    Зарегистрирован:  1 год 3 месяца   |    .torrent скачан:  80 раз   |   
Раздают:  1  
   
загрузка...
 
Автор Сообщение

Galfimbul

avatar Galfimbul


<span class="post-font-serif1">Вопль / Плач / The Wailing / Goksung</span>

<span class="post-font-serif1">Год выпуска: 2016
Страна: Южная Корея / 20th Century Fox, Ivanhoe Pictures, Side Mirror
Жанр: триллер, драма, фэнтези
Продолжительность:
Перевод: Любительский (двухголосый, закадровый) DeadSno & den904
Cубтитры: нет</span>
<span class="post-font-serif1">Режиссеры: На Хон-джин / Na Hong-jin</span>
<span class="post-font-serif1">В ролях: Квак То-вон, Хван Джон-мин, Дзюн Кунимура, Чхон У-хи, Ким Хван-хи, Чан Со-ён, Чо Хан-чхоль, Чхве Гви-хва, Ли Чхан-хун, Ю Сун-ун, Ли Ён-нё, Ким Ги-чхон, Хван Сок-чон и другие .</span>
<span class="post-font-serif1">Описание: В отдаленной лесной деревне Коксон происходят ужасные вещи — люди вдруг покрываются язвами, странно себя ведут и даже нападают на своих родных. Уже произошло несколько убийств. Полиция в растерянности. Судя по слухам, виноваты то ли какие-то ядовитые грибы, то ли приезжий японец. Местный полицейский Чон-гу смотрит на происходящее довольно отстранённо, но ровно до тех пор, пока этот кошмар не касается его дочери.</span>

<span class="post-font-serif1">Качество: HDRip / <a href="viewtopic.php?t=5294030" class="postLink">рип с BDRip 720p</a>
Формат: MP4
Видео кодек: XviD
Аудио кодек: AAC
Видео: 480x200 AR:2.40 399 kbps 24.000 fps
Аудио: [Русский] 2ch 48 kHz 128 kbps - [DVO] DeadSno & den904</span>
GeneralComplete name : D:\Torrents\Goksung.2016.HDRip.XviD.480x.rip by Frost O.S.mp4Format : MPEG-4Format profile : Base MediaCodec ID : isom (isom/iso2)File size : 597 MiBDuration : 2 h 36 minOverall bit rate mode : VariableOverall bit rate : 535 kb/sMovie name : Goksung 2016 HDRip XviD 480x rip by Frost O SContentType : Short FilmEncoded date : UTC 2016-12-21 18:16:02Tagged date : UTC 2016-12-21 18:16:50Writing application : MkvToMp4 version: 0.224 (x64)Cover : YesComment : rip by Frost O.S

VideoID : 1Format : MPEG-4 VisualFormat profile : Advanced [email protected] settings, BVOP : YesFormat settings, QPel : NoFormat settings, GMC : No warppointsFormat settings, Matrix : CustomCodec ID : 20Duration : 2 h 36 minBit rate mode : VariableBit rate : 399 kb/sMaximum bit rate : 3 222 kb/sWidth : 480 pixelsHeight : 200 pixelsDisplay aspect ratio : 2.40:1Frame rate mode : VariableFrame rate : 24.000 FPSMinimum frame rate : 12.000 FPSMaximum frame rate : 24.000 FPSColor space : YUVChroma subsampling : 4:2:0Bit depth : 8 bitsScan type : ProgressiveCompression mode : LossyBits/(Pixel*Frame) : 0.173Stream size : 446 MiB (75%)Title : avi_GPAC0.5.2_DEV_rev248_g39d5978_masterWriting library : XviD 1.2.1 (UTC 2008-12-04)Language : EnglishTagged date : UTC 2016-12-21 18:16:18

AudioID : 2Format : AACFormat/Info : Advanced Audio CodecFormat profile : LCCodec ID : 40Duration : 2 h 36 minBit rate mode : VariableBit rate : 128 kb/sMaximum bit rate : 135 kb/sChannel(s) : 2 channelsChannel positions : Front: L RSampling rate : 48.0 kHzFrame rate : 46.875 FPS (1024 spf)Compression mode : LossyStream size : 143 MiB (24%)Title : DVO_ DeadSno _ den904 / DVO_ DeadSno _ den904Language : RussianDefault : YesAlternate group : 1Encoded date : UTC 2016-12-21 18:16:15Tagged date : UTC 2016-12-21 18:16:18


Трекер:  [ 21-Дек-2016 20:30 ]

  

Скачать .torrent

Размер .torrent файла 12 KB


Размер: 597 MB
Хэш (hash) релиза: 0ab5ef94541a849bdd819da3ff5f100cdf0375e6

Еще никто не оставлял запись к записи скачать торрент [VIDEO] Вопль Плач . Будь первым!

!Обратная связь