Jangan Pernah Download Aplikasi Ini! Tanggung Sendiri Akibatnya Jika Kalian Mau Download! | Сато Кэйити | 3x12 Código negro

Скачать через торрент [VIDEO] Омерзительная восьмерка The Hateful Eight бесплатно русская версия torrent активатор

Статистика раздачи
Размер:  2.26 GB   |    Зарегистрирован:  1 год 7 месяцев   |    .torrent скачан:  68 раз   |   
Раздают:  1  
   
загрузка...
 
Автор Сообщение

Galfimbul

avatar Galfimbul


<span class="post-font-serif1">Омерзительная восьмерка / The Hateful Eight</span>

<span class="post-font-serif1">Год выпуска: 2015
Страна: США / The Weinstein Company LLC
Жанр: триллер, драма, криминал, детектив, вестерн
Продолжительность: 02:47:47
Перевод №1: русский Профессиональный (полное дублирование) Blu-ray
Перевод №2: украинский Профессиональный (полное дублирование) R5
Перевод №3: русский Профессиональный (многоголосый, закадровый) Paradox & Omskbird records
Перевод №4: русский Авторский (одноголосый, закадровый) Юрий Сербин
Перевод №5: русский Авторский (одноголосый, закадровый) Матвеев "Doctor Joker" Алексей Присутствует нецензурная лексика
Перевод №6: русский Авторский (одноголосый, закадровый) Дмитрий Есарев
Оригинальная дорожка: Есть
Cубтитры: русские (Forced, Ахметов Руслан, Матвеев "Doctor Joker" Алексей,), английские (Full, SDH)</span>
<span class="post-font-serif1">Режиссер: Квентин Тарантино / Quentin Tarantino</span>
<span class="post-font-serif1">В ролях: Курт Расселл, Сэмюэл Л. Джексон, Тим Рот, Майкл Мэдсен, Дженнифер Джейсон Ли, Уолтон Гоггинс, Демиан Бишир, Брюс Дерн, Джеймс Паркс, Дэна Гурье, Зои Белл, Ли Хорсли, Джин Джонс, Кит Джеффресон, Крэйг Старк, Белинда Овино, Ченнинг Татум, Брюс Дель Кастилло, Квентин Тарантино и другие .</span>
<span class="post-font-serif1">Описание: США после Гражданской войны. Легендарный охотник за головами Джон Рут по кличке Вешатель конвоирует заключенную. По пути к ним прибиваются еще несколько путешественников. Снежная буря вынуждает компанию искать укрытие в лавке на отшибе, где уже расположилось весьма пестрое общество: генерал конфедератов, мексиканец, ковбой… И один из них — не тот, за кого себя выдает.</span>
<span class="post-font-serif1">Релиз группы </span>
<span class="post-font-serif1">Качество: HDRip / рип с BDRip 720p
Формат: MP4
Видео кодек: H.264
Аудио кодек: AAC
Видео: 960x350 AR:2.743 1000 kbps 23.976 fps
Аудио №1: [Russian] 2ch 48 kHz 128 kbps - [Dub] Профессиональный (полное дублирование) Blu-ray
Аудио №2: [Ukrainian] 2ch 48 kHz 128 kbps - [Dub] Профессиональный (полное дублирование) R5
Аудио №3: [Russian] 2ch 48 kHz 128 kbps - [MVO] Профессиональный (многоголосый, закадровый) Paradox & Omskbird records
Аудио №4: [Russian] 2ch 48 kHz 128 kbps - [VO] Авторский (одноголосый, закадровый) Юрий Сербин
Аудио №5: [Russian] 2ch 48 kHz 128 kbps - [VO] Авторский (одноголосый, закадровый) Матвеев "Doctor Joker" Алексей Присутствует нецензурная лексика
Аудио №6: [Russian] 2ch 48 kHz 128 kbps - [VO] Авторский (одноголосый, закадровый) Дмитрий Есарев
Аудио №7: [English] 2ch 48 kHz 128 kbps - Оригинал (Английский)</span>
avs [info]: 960x350p 1:1 @ 2997/125 fps (cfr)
x264 [info]: using SAR=1/1
x264 [info]: using cpu capabilities: MMX2 SSE2Fast SSSE3 SSE4.2 AVX FMA3 AVX2 LZCNT BMI2
x264 [info]: profile High, level 4.1

x264 [info]: frame I:1753 Avg QP:14.88 size: 51926
x264 [info]: frame P:43387 Avg QP:18.41 size: 11796
x264 [info]: frame B:196195 Avg QP:20.94 size: 3341
x264 [info]: consecutive B-frames: 1.2% 1.2% 4.3% 10.5% 13.0% 41.6% 7.6% 7.7% 3.4% 4.5% 1.7% 3.3%
x264 [info]: mb I I16..4: 6.4% 69.8% 23.7%
x264 [info]: mb P I16..4: 0.4% 3.9% 0.7% P16..4: 36.3% 40.4% 14.2% 0.0% 0.0% skip: 4.2%
x264 [info]: mb B I16..4: 0.0% 0.3% 0.1% B16..8: 35.7% 17.5% 2.6% direct: 3.3% skip:40.4% L0:43.8% L1:45.4% BI:10.9%
x264 [info]: 8x8 transform intra:75.6% inter:51.6%
x264 [info]: direct mvs spatial:98.5% temporal:1.5%
x264 [info]: coded y,uvDC,uvAC intra: 91.1% 83.2% 66.6% inter: 14.6% 10.4% 4.4%
x264 [info]: i16 v,h,dc,p: 34% 14% 18% 34%
x264 [info]: i8 v,h,dc,ddl,ddr,vr,hd,vl,hu: 10% 8% 9% 9% 13% 12% 12% 12% 14%
x264 [info]: i4 v,h,dc,ddl,ddr,vr,hd,vl,hu: 10% 8% 5% 10% 14% 13% 13% 12% 14%
x264 [info]: i8c dc,h,v,p: 42% 27% 19% 13%
x264 [info]: Weighted P-Frames: Y:5.1% UV:2.1%
x264 [info]: ref P L0: 47.3% 8.1% 16.6% 7.1% 5.6% 4.6% 4.0% 2.2% 2.1% 2.1% 0.1% 0.0%
x264 [info]: ref B L0: 68.7% 12.5% 7.2% 3.6% 2.7% 2.2% 1.9% 0.8% 0.3%
x264 [info]: ref B L1: 91.6% 8.4%
x264 [info]: kb/s:1000.06

encoded 241335 frames, 19.69 fps, 1000.06 kb/s
GeneralComplete name : D:\Torrents\The Hateful Eight.2015.HDRip.x264.960x.rip by Frost O.S.mp4Format : MPEG-4Format profile : Base MediaCodec ID : isom (isom/avc1/iso2)File size : 2.26 GiBDuration : 2 h 49 minOverall bit rate mode : VariableOverall bit rate : 1 908 kb/sMovie name : The Hateful Eight 2015 HDRip x264 960x rip by Frost O SContentType : Short FilmEncoded date : UTC 2016-12-21 07:17:04Tagged date : UTC 2016-12-21 07:21:16Writing application : MkvToMp4 version: 0.224 (x64)Cover : YesComment : rip by Frost O.S

VideoID : 1Format : AVCFormat/Info : Advanced Video CodecFormat profile : [email protected] settings, CABAC : YesFormat settings, ReFrames : 10 framesCodec ID : avc1Codec ID/Info : Advanced Video CodingDuration : 2 h 47 minBit rate : 1 000 kb/sMaximum bit rate : 5 116 kb/sWidth : 960 pixelsHeight : 350 pixelsDisplay aspect ratio : 2.743Frame rate mode : ConstantFrame rate : 23.976 (24000/1001) FPSOriginal frame rate : 23.976 (23976/1000) FPSColor space : YUVChroma subsampling : 4:2:0Bit depth : 8 bitsScan type : ProgressiveBits/(Pixel*Frame) : 0.124Stream size : 1.17 GiB (52%)Writing library : x264 core 148 r2705 3f5ed56Encoding settings : cabac=1 / ref=10 / deblock=1:-2:-2 / analyse=0x3:0x113 / me=umh / subme=11 / psy=1 / psy_rd=1.15:0.10 / mixed_ref=1 / me_range=32 / chroma_me=1 / trellis=2 / 8x8dct=1 / cqm=0 / deadzone=21,11 / fast_pskip=0 / chroma_qp_offset=-3 / threads=6 / lookahead_threads=1 / sliced_threads=0 / nr=0 / decimate=0 / interlaced=0 / bluray_compat=0 / constrained_intra=0 / bframes=11 / b_pyramid=2 / b_adapt=2 / b_bias=0 / direct=3 / weightb=1 / open_gop=0 / weightp=2 / keyint=250 / keyint_min=23 / scenecut=40 / intra_refresh=0 / rc=2pass / mbtree=0 / bitrate=1000 / ratetol=1.0 / qcomp=0.60 / qpmin=0 / qpmax=69 / qpstep=4 / cplxblur=20.0 / qblur=0.5 / ip_ratio=1.40 / pb_ratio=1.30 / aq=1:0.70Language : EnglishEncoded date : UTC 2016-12-21 07:17:04Tagged date : UTC 2016-12-21 07:18:27Color range : LimitedColor primaries : BT.709Transfer characteristics : BT.709Matrix coefficients : BT.709

Audio #1ID : 2Format : AACFormat/Info : Advanced Audio CodecFormat profile : LCCodec ID : 40Duration : 2 h 47 minBit rate mode : VariableBit rate : 128 kb/sMaximum bit rate : 135 kb/sChannel(s) : 2 channelsChannel positions : Front: L RSampling rate : 48.0 kHzFrame rate : 46.875 FPS (1024 spf)Compression mode : LossyStream size : 154 MiB (7%)Title : DUB_ Blu_ray / DUB_ Blu_rayLanguage : RussianDefault : YesAlternate group : 1Encoded date : UTC 2016-12-21 07:17:30Tagged date : UTC 2016-12-21 07:18:27

Audio #2ID : 3Format : AACFormat/Info : Advanced Audio CodecFormat profile : LCCodec ID : 40Duration : 2 h 47 minBit rate mode : VariableBit rate : 128 kb/sMaximum bit rate : 135 kb/sChannel(s) : 2 channelsChannel positions : Front: L RSampling rate : 48.0 kHzFrame rate : 46.875 FPS (1024 spf)Compression mode : LossyStream size : 154 MiB (7%)Title : DUB_ R5 / DUB_ R5Language : UkrainianDefault : NoAlternate group : 1Encoded date : UTC 2016-12-21 07:17:41Tagged date : UTC 2016-12-21 07:18:27

Audio #3ID : 4Format : AACFormat/Info : Advanced Audio CodecFormat profile : LCCodec ID : 40Duration : 2 h 47 minBit rate mode : VariableBit rate : 128 kb/sMaximum bit rate : 132 kb/sChannel(s) : 2 channelsChannel positions : Front: L RSampling rate : 48.0 kHzFrame rate : 46.875 FPS (1024 spf)Compression mode : LossyStream size : 154 MiB (7%)Title : MVO_ Paradox _ Omskbird records / MVO_ Paradox _ Omskbird recordsLanguage : RussianDefault : NoAlternate group : 1Encoded date : UTC 2016-12-21 07:17:49Tagged date : UTC 2016-12-21 07:18:27

Audio #4ID : 5Format : AACFormat/Info : Advanced Audio CodecFormat profile : LCCodec ID : 40Duration : 2 h 47 minBit rate mode : VariableBit rate : 128 kb/sMaximum bit rate : 135 kb/sChannel(s) : 2 channelsChannel positions : Front: L RSampling rate : 48.0 kHzFrame rate : 46.875 FPS (1024 spf)Compression mode : LossyStream size : 154 MiB (7%)Title : VO_ Y.Serbin / VO_ Y.SerbinLanguage : RussianDefault : NoAlternate group : 1Encoded date : UTC 2016-12-21 07:17:57Tagged date : UTC 2016-12-21 07:18:27

Audio #5ID : 6Format : AACFormat/Info : Advanced Audio CodecFormat profile : LCCodec ID : 40Duration : 2 h 47 minBit rate mode : VariableBit rate : 128 kb/sMaximum bit rate : 135 kb/sChannel(s) : 2 channelsChannel positions : Front: L RSampling rate : 48.0 kHzFrame rate : 46.875 FPS (1024 spf)Compression mode : LossyStream size : 154 MiB (7%)Title : VO_ A.Matveev / VO_ A.MatveevLanguage : RussianDefault : NoAlternate group : 1Encoded date : UTC 2016-12-21 07:18:04Tagged date : UTC 2016-12-21 07:18:27

Audio #6ID : 7Format : AACFormat/Info : Advanced Audio CodecFormat profile : LCCodec ID : 40Duration : 2 h 47 minBit rate mode : VariableBit rate : 128 kb/sMaximum bit rate : 135 kb/sChannel(s) : 2 channelsChannel positions : Front: L RSampling rate : 48.0 kHzFrame rate : 46.875 FPS (1024 spf)Compression mode : LossyStream size : 154 MiB (7%)Title : VO_ D.Esarev / VO_ D.EsarevLanguage : RussianDefault : NoAlternate group : 1Encoded date : UTC 2016-12-21 07:18:11Tagged date : UTC 2016-12-21 07:18:27

Audio #7ID : 8Format : AACFormat/Info : Advanced Audio CodecFormat profile : LCCodec ID : 40Duration : 2 h 47 minBit rate mode : VariableBit rate : 128 kb/sMaximum bit rate : 135 kb/sChannel(s) : 2 channelsChannel positions : Front: L RSampling rate : 48.0 kHzFrame rate : 46.875 FPS (1024 spf)Compression mode : LossyStream size : 154 MiB (7%)Title : Original / OriginalLanguage : EnglishDefault : NoAlternate group : 1Encoded date : UTC 2016-12-21 07:18:18Tagged date : UTC 2016-12-21 07:18:27

Text #1ID : 9Format : Timed TextMuxing mode : sbtlCodec ID : tx3gDuration : 2 h 20 minBit rate mode : VariableBit rate : 1 b/sStream size : 588 Bytes (0%)Title : Forced / ForcedLanguage : RussianDefault : YesForced : NoAlternate group : 2Encoded date : UTC 2016-12-21 07:18:27Tagged date : UTC 2016-12-21 07:18:27

Text #2ID : 10Format : Timed TextMuxing mode : sbtlCodec ID : tx3gDuration : 2 h 49 minBit rate mode : VariableBit rate : 93 b/sStream size : 116 KiB (0%)Title : Ahmetov Ruslan / Ahmetov RuslanLanguage : RussianDefault : NoForced : NoAlternate group : 2Encoded date : UTC 2016-12-21 07:18:27Tagged date : UTC 2016-12-21 07:18:27

Text #3ID : 11Format : Timed TextMuxing mode : sbtlCodec ID : tx3gDuration : 2 h 43 minBit rate mode : VariableBit rate : 94 b/sStream size : 113 KiB (0%)Title : Alexey _Doctor Joker_ Matveev / Alexey _Doctor Joker_ MatveevLanguage : RussianDefault : NoForced : NoAlternate group : 2Encoded date : UTC 2016-12-21 07:18:27Tagged date : UTC 2016-12-21 07:18:27

Text #4ID : 12Format : Timed TextMuxing mode : sbtlCodec ID : tx3gDuration : 2 h 43 minBit rate mode : VariableBit rate : 68 b/sStream size : 81.7 KiB (0%)Title : Full / FullLanguage : EnglishDefault : NoForced : NoAlternate group : 2Encoded date : UTC 2016-12-21 07:18:27Tagged date : UTC 2016-12-21 07:18:27

Text #5ID : 13Format : Timed TextMuxing mode : sbtlCodec ID : tx3gDuration : 2 h 47 minBit rate mode : VariableBit rate : 76 b/sStream size : 93.6 KiB (0%)Title : SDH / SDHLanguage : EnglishDefault : NoForced : NoAlternate group : 2Encoded date : UTC 2016-12-21 07:18:27Tagged date : UTC 2016-12-21 07:18:27


Трекер:  [ 21-Дек-2016 12:00 ]

  

Скачать .torrent

Размер .torrent файла 11 KB


Размер: 2.26 GB
Хэш (hash) релиза: 7abfd8f58201b7afbb17a47ba02fa805d3cb46ae

Торренты, похожие на [VIDEO] Омерзительная восьмерка The Hateful Eight скачать торрент

Форум Название Автор Размер S L Добавлен
Видео (Фильмы/Клипы) ·· [VIDEO] Омерзительная восьмерка / The Hateful Eight (Квентин Тарантино / Quentin Tarantino) [2015, триллер, драма, криминал, детектив, вестерн, HDRip] [MP4, 480x] Dub Galfimbul 773219370737 MB 0 0 1482315236

13:13

21-Дек-16

Еще никто не оставлял запись к записи скачать торрент [VIDEO] Омерзительная восьмерка The Hateful Eight . Будь первым!

!Обратная связь