FotoSkin para PC | Lewis Tan | Gantz: vol.37 chapter 383 : Endpoint

Скачать через торрент [VIDEO] Омерзительная восьмерка The Hateful Eight бесплатно русская версия torrent активатор

Статистика раздачи
Размер:  737 MB   |    Зарегистрирован:  1 год 6 месяцев   |    .torrent скачан:  28 раз   |   
Раздают:  1  
   
загрузка...
 
Автор Сообщение

Galfimbul

avatar Galfimbul


<span class="post-font-serif1">Омерзительная восьмерка / The Hateful Eight</span>

<span class="post-font-serif1">Год выпуска: 2015
Страна: США / The Weinstein Company LLC
Жанр: триллер, драма, криминал, детектив, вестерн
Продолжительность: 02:47:45
Перевод: русский Профессиональный (полное дублирование) Blu-ray
Cубтитры: нет</span>
<span class="post-font-serif1">Режиссер: Квентин Тарантино / Quentin Tarantino</span>
<span class="post-font-serif1">В ролях: Курт Расселл, Сэмюэл Л. Джексон, Тим Рот, Майкл Мэдсен, Дженнифер Джейсон Ли, Уолтон Гоггинс, Демиан Бишир, Брюс Дерн, Джеймс Паркс, Дэна Гурье, Зои Белл, Ли Хорсли, Джин Джонс, Кит Джеффресон, Крэйг Старк, Белинда Овино, Ченнинг Татум, Брюс Дель Кастилло, Квентин Тарантино и другие .</span>
<span class="post-font-serif1">Описание: США после Гражданской войны. Легендарный охотник за головами Джон Рут по кличке Вешатель конвоирует заключенную. По пути к ним прибиваются еще несколько путешественников. Снежная буря вынуждает компанию искать укрытие в лавке на отшибе, где уже расположилось весьма пестрое общество: генерал конфедератов, мексиканец, ковбой… И один из них — не тот, за кого себя выдает.</span>
<span class="post-font-serif1">Релиз группы </span>
<span class="post-font-serif1">Качество: HDRip / рип с BDRip 720p
Формат: MP4
Видео кодек: XviD
Аудио кодек: AAC
Видео: 480x176 AR:2.727 479 kbps 23.976 fps
Аудио: [Russian] 2ch 48 kHz 128 kbps - [Dub] Профессиональный (полное дублирование) Blu-ray</span>
General
Complete name : D:\Torrents\The Hateful Eight.2015.HDRip.XviD.480x.rip by Frost O.S.mp4
Format : MPEG-4
Format profile : Base Media
Codec ID : isom (isom/iso2)
File size : 737 MiB
Duration : 2 h 47 min
Overall bit rate mode : Variable
Overall bit rate : 615 kb/s
Movie name : The Hateful Eight 2015 HDRip XviD 480x rip by Frost O S
ContentType : Short Film
Encoded date : UTC 2016-12-21 07:25:04
Tagged date : UTC 2016-12-21 07:25:45
Writing application : MkvToMp4 version: 0.224 (x64)
Cover : Yes
Comment : rip by Frost O.S

Video
ID : 1
Format : MPEG-4 Visual
Format profile : Advanced [email protected]
Format settings, BVOP : Yes
Format settings, QPel : No
Format settings, GMC : No warppoints
Format settings, Matrix : Custom
Codec ID : 20
Duration : 2 h 47 min
Bit rate mode : Variable
Bit rate : 479 kb/s
Maximum bit rate : 193 Mb/s
Width : 480 pixels
Height : 176 pixels
Display aspect ratio : 2.727
Frame rate mode : Variable
Frame rate : 23.976 (23976/1000) FPS
Minimum frame rate : 11.988 FPS
Maximum frame rate : 23.976 FPS
Color space : YUV
Chroma subsampling : 4:2:0
Bit depth : 8 bits
Scan type : Progressive
Compression mode : Lossy
Bits/(Pixel*Frame) : 0.236
Stream size : 574 MiB (78%)
Title : avi_GPAC0.5.2_DEV_rev248_g39d5978_master
Writing library : XviD 1.2.1 (UTC 2008-12-04)
Language : English
Tagged date : UTC 2016-12-21 07:25:16

Audio
ID : 2
Format : AAC
Format/Info : Advanced Audio Codec
Format profile : LC
Codec ID : 40
Duration : 2 h 47 min
Bit rate mode : Variable
Bit rate : 128 kb/s
Maximum bit rate : 135 kb/s
Channel(s) : 2 channels
Channel positions : Front: L R
Sampling rate : 48.0 kHz
Frame rate : 46.875 FPS (1024 spf)
Compression mode : Lossy
Stream size : 154 MiB (21%)
Title : DUB_ Blu_ray / DUB_ Blu_ray
Language : Russian
Default : Yes
Alternate group : 1
Encoded date : UTC 2016-12-21 07:25:13
Tagged date : UTC 2016-12-21 07:25:16


Трекер:  [ 21-Дек-2016 12:00 ]

  

Скачать .torrent

Размер .torrent файла 15 KB


Размер: 737 MB
Хэш (hash) релиза: 42be8401f1228fbd1db2caabfcea8e3413552746

Торренты, похожие на [VIDEO] Омерзительная восьмерка The Hateful Eight скачать торрент

Форум Название Автор Размер S L Добавлен
Видео (Фильмы/Клипы) ·· [VIDEO] Омерзительная восьмерка / The Hateful Eight (Квентин Тарантино / Quentin Tarantino) [2015, триллер, драма, криминал, детектив, вестерн, HDRip] [MP4, 960x] Galfimbul 24227717442.26 GB 0 0 1482315239

13:13

21-Дек-16

Еще никто не оставлял запись к записи скачать торрент [VIDEO] Омерзительная восьмерка The Hateful Eight . Будь первым!

!Обратная связь