Chapter 142 | Killing Salazar | IMDb: 5.7 HD Gnome Alone

Скачать через торрент [VIDEO] Великолепная семерка The Magnificent Seven бесплатно русская версия torrent активатор

Статистика раздачи
Размер:  1.42 GB   |    Зарегистрирован:  1 год 6 месяцев   |    .torrent скачан:  60 раз   |   
Раздают:  1  
   
загрузка...
 
Автор Сообщение

Galfimbul

avatar Galfimbul


<span class="post-font-serif1">Великолепная семерка / The Magnificent Seven</span>

<span class="post-font-serif1">Год выпуска: 2016
Страна: США / Columbia Pictures, Metro-Goldwyn-Mayer (MGM)
Жанр: боевик, приключения, вестерн
Продолжительность: 02:12:50
Перевод: русский Профессиональный (полное дублирование) Blu-ray CEE
Оригинальная дорожка: Есть
Cубтитры: русские (Full Blu-ray CEE), английские (Full, SDH)</span>
<span class="post-font-serif1">Режиссер: Антуан Фукуа / Antoine Fuqua</span>
<span class="post-font-serif1">В ролях: Дензел Вашингтон (Chisolm), Крис Пратт (Josh Faraday), Итан Хоук (Goodnight Robicheaux), Винсент Д Онофрио (Jack Horne), Ли Бён-хон (Billy Rocks), Мануэль Рульфо (Vasquez), Мартин Сенсмейер (Red Harvest), Хейли Беннетт (Emma Cullen), Питер Сарсгаард (Bartholomew Bogue), Люк Граймс (Teddy Q), Мэтт Бомер (Matthew Cullen), Кэм Жиганде (McCann) и другие .</span>
<span class="post-font-serif1">Описание: Семеро отважных искателей приключений встают на защиту жителей маленького городка, угнетаемого бандой грабителей.</span>
<span class="post-font-serif1">Релиз группы </span>
<span class="post-font-serif1">Качество: HDRip / рип с BDRip 720p
Формат: MP4
Видео кодек: H.264
Аудио кодек: AAC
Видео: 960x402 AR:2.40 1258 kbps 23.976 fps
Аудио №1: [Russian] 2ch 48 kHz 128 kbps - [Dub] Профессиональный (полное дублирование) Blu-ray CEE
Аудио №2: [English] 2ch 48 kHz 128 kbps - Оригинал (Английский)</span>
avs [info]: 960x402p 1:1 @ 2997/125 fps (cfr)
x264 [info]: using SAR=1/1
x264 [info]: using cpu capabilities: MMX2 SSE2Fast SSSE3 SSE4.2 AVX FMA3 AVX2 LZCNT BMI2
x264 [info]: profile High, level 4.1

x264 [info]: frame I:2463 Avg QP:18.70 size: 51349
x264 [info]: frame P:43866 Avg QP:22.52 size: 13344
x264 [info]: frame B:144759 Avg QP:24.82 size: 3741
x264 [info]: consecutive B-frames: 3.1% 3.7% 8.1% 28.7% 15.2% 28.6% 4.1% 6.9% 1.5%
x264 [info]: mb I I16..4: 3.9% 74.3% 21.8%
x264 [info]: mb P I16..4: 0.7% 6.1% 1.6% P16..4: 36.8% 39.0% 10.8% 0.0% 0.0% skip: 5.0%
x264 [info]: mb B I16..4: 0.1% 0.7% 0.2% B16..8: 39.0% 16.5% 2.3% direct: 2.8% skip:38.5% L0:42.2% L1:48.7% BI: 9.1%
x264 [info]: 8x8 transform intra:73.0% inter:61.2%
x264 [info]: direct mvs spatial:96.5% temporal:3.5%
x264 [info]: coded y,uvDC,uvAC intra: 81.7% 75.5% 44.5% inter: 16.9% 10.6% 2.8%
x264 [info]: i16 v,h,dc,p: 37% 17% 4% 42%
x264 [info]: i8 v,h,dc,ddl,ddr,vr,hd,vl,hu: 16% 6% 6% 9% 14% 13% 13% 11% 12%
x264 [info]: i4 v,h,dc,ddl,ddr,vr,hd,vl,hu: 29% 6% 6% 7% 11% 11% 11% 9% 10%
x264 [info]: i8c dc,h,v,p: 29% 29% 24% 18%
x264 [info]: Weighted P-Frames: Y:9.8% UV:6.3%
x264 [info]: ref P L0: 52.7% 12.4% 15.4% 6.0% 4.7% 3.5% 3.0% 1.9% 0.3% 0.0%
x264 [info]: ref B L0: 79.3% 10.0% 5.0% 2.3% 1.9% 1.1% 0.4%
x264 [info]: ref B L1: 94.7% 5.3%
x264 [info]: kb/s:1258.13

encoded 191088 frames, 18.32 fps, 1258.13 kb/s
GeneralComplete name : D:\Torrents\The Magnificent Seven.2016.HDRip.x264.960x.rip by Frost O.S.mp4Format : MPEG-4Format profile : Base MediaCodec ID : isom (isom/avc1/iso2)File size : 1.42 GiBDuration : 2 h 12 minOverall bit rate mode : VariableOverall bit rate : 1 526 kb/sMovie name : The Magnificent Seven 2016 HDRip x264 960x rip by Frost O SContentType : Short FilmEncoded date : UTC 2016-12-21 07:52:50Tagged date : UTC 2016-12-21 07:54:20Writing application : MkvToMp4 version: 0.224 (x64)Cover : YesComment : rip by Frost O.S

VideoID : 1Format : AVCFormat/Info : Advanced Video CodecFormat profile : [email protected] settings, CABAC : YesFormat settings, ReFrames : 8 framesCodec ID : avc1Codec ID/Info : Advanced Video CodingDuration : 2 h 12 minBit rate : 1 258 kb/sMaximum bit rate : 4 172 kb/sWidth : 960 pixelsHeight : 402 pixelsDisplay aspect ratio : 2.40:1Frame rate mode : ConstantFrame rate : 23.976 (24000/1001) FPSOriginal frame rate : 23.976 (23976/1000) FPSColor space : YUVChroma subsampling : 4:2:0Bit depth : 8 bitsScan type : ProgressiveBits/(Pixel*Frame) : 0.136Stream size : 1.17 GiB (82%)Writing library : x264 core 148 r2705 3f5ed56Encoding settings : cabac=1 / ref=8 / deblock=1:-1:-1 / analyse=0x3:0x113 / me=umh / subme=11 / psy=1 / psy_rd=1.10:0.00 / mixed_ref=1 / me_range=32 / chroma_me=1 / trellis=2 / 8x8dct=1 / cqm=0 / deadzone=21,11 / fast_pskip=0 / chroma_qp_offset=-2 / threads=6 / lookahead_threads=1 / sliced_threads=0 / nr=0 / decimate=0 / interlaced=0 / bluray_compat=0 / constrained_intra=0 / bframes=8 / b_pyramid=2 / b_adapt=2 / b_bias=0 / direct=3 / weightb=1 / open_gop=0 / weightp=2 / keyint=250 / keyint_min=23 / scenecut=40 / intra_refresh=0 / rc=2pass / mbtree=0 / bitrate=1258 / ratetol=1.0 / qcomp=0.60 / qpmin=0 / qpmax=69 / qpstep=4 / cplxblur=20.0 / qblur=0.5 / ip_ratio=1.40 / pb_ratio=1.30 / aq=1:1.00Language : EnglishEncoded date : UTC 2016-12-21 07:52:50Tagged date : UTC 2016-12-21 07:53:23Color range : LimitedColor primaries : BT.709Transfer characteristics : BT.709Matrix coefficients : BT.709

Audio #1ID : 2Format : AACFormat/Info : Advanced Audio CodecFormat profile : LCCodec ID : 40Duration : 2 h 12 minBit rate mode : VariableBit rate : 128 kb/sMaximum bit rate : 135 kb/sChannel(s) : 2 channelsChannel positions : Front: L RSampling rate : 48.0 kHzFrame rate : 46.875 FPS (1024 spf)Compression mode : LossyStream size : 122 MiB (8%)Title : DUB_ Blu_ray CEE / DUB_ Blu_ray CEELanguage : RussianDefault : YesAlternate group : 1Encoded date : UTC 2016-12-21 07:53:06Tagged date : UTC 2016-12-21 07:53:23

Audio #2ID : 3Format : AACFormat/Info : Advanced Audio CodecFormat profile : LCCodec ID : 40Duration : 2 h 12 minBit rate mode : VariableBit rate : 128 kb/sMaximum bit rate : 135 kb/sChannel(s) : 2 channelsChannel positions : Front: L RSampling rate : 48.0 kHzFrame rate : 46.875 FPS (1024 spf)Compression mode : LossyStream size : 122 MiB (8%)Title : Original / OriginalLanguage : EnglishDefault : NoAlternate group : 1Encoded date : UTC 2016-12-21 07:53:16Tagged date : UTC 2016-12-21 07:53:23

Text #1ID : 4Format : Timed TextMuxing mode : sbtlCodec ID : tx3gDuration : 2 h 8 minBit rate mode : VariableBit rate : 79 b/sStream size : 74.7 KiB (0%)Title : Blu_ray CEE / Blu_ray CEELanguage : RussianDefault : YesForced : NoAlternate group : 2Encoded date : UTC 2016-12-21 07:53:23Tagged date : UTC 2016-12-21 07:53:23

Text #2ID : 5Format : Timed TextMuxing mode : sbtlCodec ID : tx3gDuration : 2 h 8 minBit rate mode : VariableBit rate : 54 b/sStream size : 50.6 KiB (0%)Title : Full / FullLanguage : EnglishDefault : NoForced : NoAlternate group : 2Encoded date : UTC 2016-12-21 07:53:23Tagged date : UTC 2016-12-21 07:53:23

Text #3ID : 6Format : Timed TextMuxing mode : sbtlCodec ID : tx3gDuration : 2 h 8 minBit rate mode : VariableBit rate : 64 b/sStream size : 60.6 KiB (0%)Title : SDH / SDHLanguage : EnglishDefault : NoForced : NoAlternate group : 2Encoded date : UTC 2016-12-21 07:53:23Tagged date : UTC 2016-12-21 07:53:23


Трекер:  [ 21-Дек-2016 12:00 ]

  

Скачать .torrent

Размер .torrent файла 14 KB


Размер: 1.42 GB
Хэш (hash) релиза: 6c7687a72f0930b26d8ae48a590397d82a00f20f

Торренты, похожие на [VIDEO] Великолепная семерка The Magnificent Seven скачать торрент

Форум Название Автор Размер S L Добавлен
Видео (Фильмы/Клипы) ·· [VIDEO] Великолепная семерка / The Magnificent Seven (Антуан Фукуа / Antoine Fuqua) [2016, боевик, приключения, вестерн, BDRip] [MP4, 1280x] Galfimbul 29229849272.72 GB 0 0 1485103814

19:50

22-Янв-17

Видео (Фильмы/Клипы) ·· [VIDEO] Великолепная семерка / The Magnificent Seven (Антуан Фукуа / Antoine Fuqua) [2016, боевик, приключения, вестерн, HDRip] [MP4, 480x] Dub Galfimbul 632489553603 MB 0 0 1482315229

13:13

21-Дек-16

Еще никто не оставлял запись к записи скачать торрент [VIDEO] Великолепная семерка The Magnificent Seven . Будь первым!

!Обратная связь