free movies | Télécharger ! | Les Ailes de la Victoire FRENCH WEBRIP 2018

Скачать через торрент [VIDEO] Великолепная семерка The Magnificent Seven бесплатно русская версия torrent активатор

Статистика раздачи
Размер:  603 MB   |    Зарегистрирован:  1 год 6 месяцев   |    .torrent скачан:  20 раз   |   
Раздают:  1  
   
загрузка...
 
Автор Сообщение

Galfimbul

avatar Galfimbul


<span class="post-font-serif1">Великолепная семерка / The Magnificent Seven</span>

<span class="post-font-serif1">Год выпуска: 2016
Страна: США / Columbia Pictures, Metro-Goldwyn-Mayer (MGM)
Жанр: боевик, приключения, вестерн
Продолжительность: 02:12:50
Перевод: русский Профессиональный (полное дублирование) Blu-ray CEE
Cубтитры: нет</span>
<span class="post-font-serif1">Режиссер: Антуан Фукуа / Antoine Fuqua</span>
<span class="post-font-serif1">В ролях: Дензел Вашингтон (Chisolm), Крис Пратт (Josh Faraday), Итан Хоук (Goodnight Robicheaux), Винсент Д Онофрио (Jack Horne), Ли Бён-хон (Billy Rocks), Мануэль Рульфо (Vasquez), Мартин Сенсмейер (Red Harvest), Хейли Беннетт (Emma Cullen), Питер Сарсгаард (Bartholomew Bogue), Люк Граймс (Teddy Q), Мэтт Бомер (Matthew Cullen), Кэм Жиганде (McCann) и другие .</span>
<span class="post-font-serif1">Описание: Семеро отважных искателей приключений встают на защиту жителей маленького городка, угнетаемого бандой грабителей.</span>
<span class="post-font-serif1">Релиз группы </span>
<span class="post-font-serif1">Качество: HDRip / рип с BDRip 720p
Формат: MP4
Видео кодек: XviD
Аудио кодек: AAC
Видео: 480x200 AR:2.40 499 kbps 23.976 fps
Аудио: [Russian] 2ch 48 kHz 128 kbps - [Dub] Профессиональный (полное дублирование) Blu-ray CEE</span>
GeneralComplete name : D:\Torrents\The Magnificent Seven.2016.HDRip.XviD.480x.rip by Frost O.S.mp4Format : MPEG-4Format profile : Base MediaCodec ID : isom (isom/iso2)File size : 603 MiBDuration : 2 h 12 minOverall bit rate mode : VariableOverall bit rate : 635 kb/sMovie name : The Magnificent Seven 2016 HDRip XviD 480x rip by Frost O SContentType : Short FilmEncoded date : UTC 2016-12-21 07:56:27Tagged date : UTC 2016-12-21 07:56:52Writing application : MkvToMp4 version: 0.224 (x64)Cover : YesComment : rip by Frost O.S

VideoID : 1Format : MPEG-4 VisualFormat profile : Advanced [email protected] settings, BVOP : YesFormat settings, QPel : NoFormat settings, GMC : No warppointsFormat settings, Matrix : CustomCodec ID : 20Duration : 2 h 12 minBit rate mode : VariableBit rate : 499 kb/sMaximum bit rate : 3 014 kb/sWidth : 480 pixelsHeight : 200 pixelsDisplay aspect ratio : 2.40:1Frame rate mode : ConstantFrame rate : 23.976 (24000/1001) FPSOriginal frame rate : 23.976 (23976/1000) FPSColor space : YUVChroma subsampling : 4:2:0Bit depth : 8 bitsScan type : ProgressiveCompression mode : LossyBits/(Pixel*Frame) : 0.217Stream size : 474 MiB (79%)Title : avi_GPAC0.5.2_DEV_rev248_g39d5978_masterWriting library : XviD 1.2.1 (UTC 2008-12-04)Language : EnglishTagged date : UTC 2016-12-21 07:56:37

AudioID : 2Format : AACFormat/Info : Advanced Audio CodecFormat profile : LCCodec ID : 40Duration : 2 h 12 minBit rate mode : VariableBit rate : 128 kb/sMaximum bit rate : 135 kb/sChannel(s) : 2 channelsChannel positions : Front: L RSampling rate : 48.0 kHzFrame rate : 46.875 FPS (1024 spf)Compression mode : LossyStream size : 122 MiB (20%)Title : DUB_ Blu_ray CEE / DUB_ Blu_ray CEELanguage : RussianDefault : YesAlternate group : 1Encoded date : UTC 2016-12-21 07:56:35Tagged date : UTC 2016-12-21 07:56:37


Трекер:  [ 21-Дек-2016 12:00 ]

  

Скачать .torrent

Размер .torrent файла 12 KB


Размер: 603 MB
Хэш (hash) релиза: 3ff3ed2f0cf7c20182fa5d1185991a4d7318d6c0

Еще никто не оставлял запись к записи скачать торрент [VIDEO] Великолепная семерка The Magnificent Seven . Будь первым!

!Обратная связь