Eps10 American Playboy: The Hugh Hefner Story (2017) | Charlene Choi | Power Rangers In Space

Скачать через торрент [VIDEO] Черепашки-ниндзя 2 Teenage Mutant Ninja Turtles: Out of the Shadows бесплатно русская версия torrent активатор

Статистика раздачи
Размер:  1.57 GB   |    Зарегистрирован:  1 год 6 месяцев   |    .torrent скачан:  37 раз   |   
Раздают:  1  
   
загрузка...
 
Автор Сообщение

Galfimbul

avatar Galfimbul


<span class="post-font-serif1">Черепашки-ниндзя 2 / Teenage Mutant Ninja Turtles: Out of the Shadows</span>

<span class="post-font-serif1">Год выпуска: 2016
Страна: США, Гонконг, Китай, Канада / Paramount Pictures
Жанр: фантастика, боевик, комедия, приключения
Продолжительность: 01:52:01
Перевод: русский Профессиональный (полное дублирование) Blu-ray CEE|
Оригинальная дорожка: Есть
Cубтитры: русские (Forced iTunes, Full iTunes), английские (Full, SDH)</span>
<span class="post-font-serif1">Режиссер: Дэйв Грин / Dave Green</span>
<span class="post-font-serif1">В ролях: Меган Фокс, Стивен Амелл, Алан Ричсон, Лора Линни, Уилл Арнетт, Ноэль Фишер, Стефен Фаррелли, Алессандра Амброзио, Брэд Гэррет, Тайлер Перри и другие .</span>
<span class="post-font-serif1">Описание: Долгое время черепашки-ниндзя скрывались от людей в лабиринтах городской канализации. На протяжении нескольких лет учитель Сплинтер обучал их боевым искусствам и прививал им чувство справедливости. В один прекрасный момент им пришлось подняться наверх, чтобы спасти Нью-Йорк от Шредера, предводителя Клана Футов, захватившего власть в Нью-Йорке. Вместе с отважным репортером Эйприл и ее оператором Верном, бесстрашные воины смогли одержать победу и очистить любимый город от преступности. Леонардо, Микеланджело, Рафаэль и Донателло нашли свое предназначение в этом мире и стали защитниками своего города. Они навели порядок в Нью-Йорке и с чистой совестью могли отправиться на покой, но однажды им вновь пришлось столкнуться с могущественным врагом, угрожающим их городу.</span>
<span class="post-font-serif1">Релиз группы </span>
<span class="post-font-serif1">Качество: HDRip / рип с BDRip 1080p
Формат: MP4
Видео кодек: H.264
Аудио кодек: AAC
Видео: 960x400 AR:2.40 1740 kbps 23.976 fps
Аудио №1: [Russian] 2ch 48 kHz 128 kbps - [Dub] Профессиональный (полное дублирование) Blu-ray CEE
Аудио №2: [English] 2ch 48 kHz 128 kbps - Оригинал (Английский)</span>
avs [info]: 960x400p 1:1 @ 2997/125 fps (cfr)
x264 [info]: using SAR=1/1
x264 [info]: using cpu capabilities: MMX2 SSE2Fast SSSE3 SSE4.2 AVX FMA3 AVX2 LZCNT BMI2
x264 [info]: profile High, level 4.1

x264 [info]: frame I:1622 Avg QP:19.93 size: 51276
x264 [info]: frame P:50168 Avg QP:24.03 size: 15691
x264 [info]: frame B:109511 Avg QP:26.30 size: 5412
x264 [info]: consecutive B-frames: 7.2% 8.4% 20.3% 34.8% 12.8% 14.2% 1.3% 0.5% 0.4%
x264 [info]: mb I I16..4: 7.0% 67.1% 25.9%
x264 [info]: mb P I16..4: 1.9% 13.9% 3.0% P16..4: 31.9% 33.6% 9.4% 0.0% 0.0% skip: 6.3%
x264 [info]: mb B I16..4: 0.3% 2.0% 0.4% B16..8: 35.2% 19.7% 3.2% direct: 4.8% skip:34.3% L0:40.1% L1:44.5% BI:15.4%
x264 [info]: 8x8 transform intra:73.4% inter:64.8%
x264 [info]: direct mvs spatial:93.0% temporal:7.0%
x264 [info]: coded y,uvDC,uvAC intra: 80.6% 83.5% 53.9% inter: 22.6% 24.9% 10.8%
x264 [info]: i16 v,h,dc,p: 17% 19% 5% 58%
x264 [info]: i8 v,h,dc,ddl,ddr,vr,hd,vl,hu: 7% 7% 5% 10% 14% 14% 15% 12% 15%
x264 [info]: i4 v,h,dc,ddl,ddr,vr,hd,vl,hu: 10% 9% 5% 8% 14% 14% 15% 11% 14%
x264 [info]: i8c dc,h,v,p: 38% 25% 18% 20%
x264 [info]: Weighted P-Frames: Y:17.3% UV:12.2%
x264 [info]: ref P L0: 55.6% 14.4% 14.5% 5.0% 3.7% 2.7% 2.2% 1.4% 0.4% 0.1%
x264 [info]: ref B L0: 85.6% 7.4% 3.4% 1.6% 1.1% 0.7% 0.3%
x264 [info]: ref B L1: 97.2% 2.8%
x264 [info]: kb/s:1739.80

encoded 161301 frames, 15.75 fps, 1739.80 kb/s
GeneralComplete name : D:\Torrents\Teenage Mutant Ninja Turtles Out of the Shadows.2016.HDRip.x264.960x.rip by Frost O.S.mp4Format : MPEG-4Format profile : Base MediaCodec ID : isom (isom/avc1/iso2)File size : 1.57 GiBDuration : 1 h 52 minOverall bit rate mode : VariableOverall bit rate : 2 008 kb/sMovie name : Teenage Mutant Ninja Turtles Out of the Shadows 2016 HDRip x264 960x rip by Frost O SContentType : Short FilmEncoded date : UTC 2016-12-21 08:21:25Tagged date : UTC 2016-12-21 08:23:19Writing application : MkvToMp4 version: 0.224 (x64)Cover : YesComment : rip by Frost O.S

VideoID : 1Format : AVCFormat/Info : Advanced Video CodecFormat profile : [email protected] settings, CABAC : YesFormat settings, ReFrames : 8 framesCodec ID : avc1Codec ID/Info : Advanced Video CodingDuration : 1 h 52 minBit rate : 1 740 kb/sMaximum bit rate : 4 796 kb/sWidth : 960 pixelsHeight : 400 pixelsDisplay aspect ratio : 2.40:1Frame rate mode : ConstantFrame rate : 23.976 (24000/1001) FPSOriginal frame rate : 23.976 (23976/1000) FPSColor space : YUVChroma subsampling : 4:2:0Bit depth : 8 bitsScan type : ProgressiveBits/(Pixel*Frame) : 0.189Stream size : 1.36 GiB (87%)Writing library : x264 core 148 r2705 3f5ed56Encoding settings : cabac=1 / ref=8 / deblock=1:-2:-2 / analyse=0x3:0x113 / me=umh / subme=11 / psy=1 / psy_rd=1.10:0.10 / mixed_ref=1 / me_range=32 / chroma_me=1 / trellis=2 / 8x8dct=1 / cqm=0 / deadzone=21,11 / fast_pskip=0 / chroma_qp_offset=-3 / threads=6 / lookahead_threads=1 / sliced_threads=0 / nr=0 / decimate=0 / interlaced=0 / bluray_compat=0 / constrained_intra=0 / bframes=8 / b_pyramid=2 / b_adapt=2 / b_bias=0 / direct=3 / weightb=1 / open_gop=0 / weightp=2 / keyint=250 / keyint_min=23 / scenecut=40 / intra_refresh=0 / rc=2pass / mbtree=0 / bitrate=1740 / ratetol=1.0 / qcomp=0.60 / qpmin=0 / qpmax=69 / qpstep=4 / cplxblur=20.0 / qblur=0.5 / ip_ratio=1.40 / pb_ratio=1.30 / aq=1:1.00Language : EnglishEncoded date : UTC 2016-12-21 08:21:25Tagged date : UTC 2016-12-21 08:22:12Color range : LimitedColor primaries : BT.709Transfer characteristics : BT.709Matrix coefficients : BT.709

Audio #1ID : 2Format : AACFormat/Info : Advanced Audio CodecFormat profile : LCCodec ID : 40Duration : 1 h 52 minBit rate mode : VariableBit rate : 128 kb/sMaximum bit rate : 134 kb/sChannel(s) : 2 channelsChannel positions : Front: L RSampling rate : 48.0 kHzFrame rate : 46.875 FPS (1024 spf)Compression mode : LossyStream size : 103 MiB (6%)Title : DUB_ Blu_ray CEE / DUB_ Blu_ray CEELanguage : RussianDefault : YesAlternate group : 1Encoded date : UTC 2016-12-21 08:21:58Tagged date : UTC 2016-12-21 08:22:12

Audio #2ID : 3Format : AACFormat/Info : Advanced Audio CodecFormat profile : LCCodec ID : 40Duration : 1 h 52 minBit rate mode : VariableBit rate : 128 kb/sMaximum bit rate : 133 kb/sChannel(s) : 2 channelsChannel positions : Front: L RSampling rate : 48.0 kHzFrame rate : 46.875 FPS (1024 spf)Compression mode : LossyStream size : 103 MiB (6%)Title : Original / OriginalLanguage : EnglishDefault : NoAlternate group : 1Encoded date : UTC 2016-12-21 08:22:06Tagged date : UTC 2016-12-21 08:22:12

Text #1ID : 4Format : Timed TextMuxing mode : sbtlCodec ID : tx3gDuration : 1 h 44 minBit rate mode : VariableBit rate : 1 b/sStream size : 408 Bytes (0%)Title : Forced_ iTunes / Forced_ iTunesLanguage : RussianDefault : YesForced : NoAlternate group : 2Encoded date : UTC 2016-12-21 08:22:12Tagged date : UTC 2016-12-21 08:22:12

Text #2ID : 5Format : Timed TextMuxing mode : sbtlCodec ID : tx3gDuration : 1 h 44 minBit rate mode : VariableBit rate : 101 b/sStream size : 77.3 KiB (0%)Title : Full iTunes / Full iTunesLanguage : RussianDefault : NoForced : NoAlternate group : 2Encoded date : UTC 2016-12-21 08:22:12Tagged date : UTC 2016-12-21 08:22:12

Text #3ID : 6Format : Timed TextMuxing mode : sbtlCodec ID : tx3gDuration : 1 h 44 minBit rate mode : VariableBit rate : 74 b/sStream size : 56.4 KiB (0%)Title : Full / FullLanguage : EnglishDefault : NoForced : NoAlternate group : 2Encoded date : UTC 2016-12-21 08:22:12Tagged date : UTC 2016-12-21 08:22:12

Text #4ID : 7Format : Timed TextMuxing mode : sbtlCodec ID : tx3gDuration : 1 h 44 minBit rate mode : VariableBit rate : 84 b/sStream size : 64.0 KiB (0%)Title : SDH / SDHLanguage : EnglishDefault : NoForced : NoAlternate group : 2Encoded date : UTC 2016-12-21 08:22:12Tagged date : UTC 2016-12-21 08:22:12


Трекер:  [ 21-Дек-2016 12:00 ]

  

Скачать .torrent

Размер .torrent файла 16 KB


Размер: 1.57 GB
Хэш (hash) релиза: a213341dfe288a0b7c5d0c66db19e089967ce91a

Торренты, похожие на [VIDEO] Черепашки-ниндзя 2 Teenage Mutant Ninja Turtles: Out of the Shadows скачать торрент

Форум Название Автор Размер S L Добавлен
Видео (Фильмы/Клипы) ·· [VIDEO] Черепашки-ниндзя 2 / Teenage Mutant Ninja Turtles: Out of the Shadows (Дэйв Грин / Dave Green) [2016, фантастика, боевик, комедия, приключения, HDRip] [MP4, 480x] Dub Galfimbul 540919962516 MB 0 0 1482315222

13:13

21-Дек-16

Еще никто не оставлял запись к записи скачать торрент [VIDEO] Черепашки-ниндзя 2 Teenage Mutant Ninja Turtles: Out of the Shadows . Будь первым!

!Обратная связь