The REALLY Free Speech Thread! v3 | Kaspersky Anti-Virus 2013. | Download

Скачать через торрент [VIDEO] Черепашки-ниндзя 2 Teenage Mutant Ninja Turtles: Out of the Shadows бесплатно русская версия torrent активатор

Статистика раздачи
Размер:  516 MB   |    Зарегистрирован:  1 год 6 месяцев   |    .torrent скачан:  13 раз   |   
Раздают:  1  
   
загрузка...
 
Автор Сообщение

Galfimbul

avatar Galfimbul


<span class="post-font-serif1">Черепашки-ниндзя 2 / Teenage Mutant Ninja Turtles: Out of the Shadows</span>

<span class="post-font-serif1">Год выпуска: 2016
Страна: США, Гонконг, Китай, Канада / Paramount Pictures
Жанр: фантастика, боевик, комедия, приключения
Продолжительность: 01:52:07
Перевод: русский Профессиональный (полное дублирование) Blu-ray CEE
Cубтитры: нет</span>
<span class="post-font-serif1">Режиссер: Дэйв Грин / Dave Green</span>
<span class="post-font-serif1">В ролях: Меган Фокс, Стивен Амелл, Алан Ричсон, Лора Линни, Уилл Арнетт, Ноэль Фишер, Стефен Фаррелли, Алессандра Амброзио, Брэд Гэррет, Тайлер Перри и другие .</span>
<span class="post-font-serif1">Описание: Долгое время черепашки-ниндзя скрывались от людей в лабиринтах городской канализации. На протяжении нескольких лет учитель Сплинтер обучал их боевым искусствам и прививал им чувство справедливости. В один прекрасный момент им пришлось подняться наверх, чтобы спасти Нью-Йорк от Шредера, предводителя Клана Футов, захватившего власть в Нью-Йорке. Вместе с отважным репортером Эйприл и ее оператором Верном, бесстрашные воины смогли одержать победу и очистить любимый город от преступности. Леонардо, Микеланджело, Рафаэль и Донателло нашли свое предназначение в этом мире и стали защитниками своего города. Они навели порядок в Нью-Йорке и с чистой совестью могли отправиться на покой, но однажды им вновь пришлось столкнуться с могущественным врагом, угрожающим их городу.</span>
<span class="post-font-serif1">Релиз группы </span>
<span class="post-font-serif1">Качество: HDRip / рип с BDRip 1080p
Формат: MP4
Видео кодек: XviD
Аудио кодек: AAC
Видео: 480x200 AR:2.40 507 kbps 23.976 fps
Аудио: [Russian] 2ch 48 kHz 128 kbps - [Dub] Профессиональный (полное дублирование) Blu-ray CEE</span>
GeneralComplete name : D:\Torrents\Teenage Mutant Ninja Turtles Out of the Shadows.2016.HDRip.XviD.480x.rip by Frost O.S.mp4Format : MPEG-4Format profile : Base MediaCodec ID : isom (isom/iso2)File size : 516 MiBDuration : 1 h 52 minOverall bit rate mode : VariableOverall bit rate : 643 kb/sMovie name : Teenage Mutant Ninja Turtles Out of the Shadows 2016 HDRip XviD 480x rip by Frost O SContentType : Short FilmEncoded date : UTC 2016-12-21 08:26:07Tagged date : UTC 2016-12-21 08:26:46Writing application : MkvToMp4 version: 0.224 (x64)Cover : YesComment : rip by Frost O.S

VideoID : 1Format : MPEG-4 VisualFormat profile : Advanced [email protected] settings, BVOP : YesFormat settings, QPel : NoFormat settings, GMC : No warppointsFormat settings, Matrix : CustomCodec ID : 20Duration : 1 h 52 minBit rate mode : VariableBit rate : 507 kb/sMaximum bit rate : 193 Mb/sWidth : 480 pixelsHeight : 200 pixelsDisplay aspect ratio : 2.40:1Frame rate mode : VariableFrame rate : 23.976 (23976/1000) FPSMinimum frame rate : 11.988 FPSMaximum frame rate : 23.976 FPSColor space : YUVChroma subsampling : 4:2:0Bit depth : 8 bitsScan type : ProgressiveCompression mode : LossyBits/(Pixel*Frame) : 0.220Stream size : 407 MiB (79%)Title : avi_GPAC0.5.2_DEV_rev248_g39d5978_masterWriting library : XviD 1.2.1 (UTC 2008-12-04)Language : EnglishTagged date : UTC 2016-12-21 08:26:15

AudioID : 2Format : AACFormat/Info : Advanced Audio CodecFormat profile : LCCodec ID : 40Duration : 1 h 52 minBit rate mode : VariableBit rate : 128 kb/sMaximum bit rate : 134 kb/sChannel(s) : 2 channelsChannel positions : Front: L RSampling rate : 48.0 kHzFrame rate : 46.875 FPS (1024 spf)Compression mode : LossyStream size : 103 MiB (20%)Title : DUB_ Blu_ray CEE / DUB_ Blu_ray CEELanguage : RussianDefault : YesAlternate group : 1Encoded date : UTC 2016-12-21 08:26:13Tagged date : UTC 2016-12-21 08:26:15


Трекер:  [ 21-Дек-2016 12:00 ]

  

Скачать .torrent

Размер .torrent файла 10 KB


Размер: 516 MB
Хэш (hash) релиза: 2639d8a8a41c03a05d3044c115e730102e91e096

Торренты, похожие на [VIDEO] Черепашки-ниндзя 2 Teenage Mutant Ninja Turtles: Out of the Shadows скачать торрент

Форум Название Автор Размер S L Добавлен
Видео (Фильмы/Клипы) ·· [VIDEO] Черепашки-ниндзя 2 / Teenage Mutant Ninja Turtles: Out of the Shadows (Дэйв Грин / Dave Green) [2016, фантастика, боевик, комедия, приключения, HDRip] [MP4, 960x] Dub, Original, Sub (rus, eng) Galfimbul 16886590821.57 GB 0 0 1482315225

13:13

21-Дек-16

Еще никто не оставлял запись к записи скачать торрент [VIDEO] Черепашки-ниндзя 2 Teenage Mutant Ninja Turtles: Out of the Shadows . Будь первым!

!Обратная связь