[Adventure] The Turing Test Collectors Edition - ElAmigos | Ich war's nicht | Movie Trailer addison timlin

Скачать через торрент [VIDEO] Братья из Гримсби Grimsby бесплатно русская версия torrent активатор

Статистика раздачи
Размер:  891 MB   |    Зарегистрирован:  1 год 7 месяцев   |    .torrent скачан:  30 раз   |   
Раздают:  1  
   
загрузка...
 
Автор Сообщение

Galfimbul

avatar Galfimbul


<span class="post-font-serif1">Братья из Гримсби / Grimsby</span>

<span class="post-font-serif1">Год выпуска: 2016
Страна: Великобритания, Австралия / Columbia Pictures
Жанр: боевик, комедия
Продолжительность: 01:23:10
Перевод: русский Профессиональный (полное дублирование) BD CEE |Лицензия|
Оригинальная дорожка: Есть
Cубтитры: русские (Forced, Full), английские (Full, SDH)</span>
<span class="post-font-serif1">Режиссер: Луи Летерье / Louis Leterrier</span>
<span class="post-font-serif1">В ролях: Саша Барон Коэн, Марк Стронг, Ребел Уилсон, Пенелопа Крус, Айла Фишер, Скотт Эдкинс, Иэн МакШейн, Габури Сидибе, Аннабелль Уоллис, Дэвид Хэрвуд, Рикки Томлинсон, Джонни Вегас, Сэм Хэзелдайн, Фредди Краудер, Джон-Джон Локвуд, Шон Томас, Клаудия Эдшид, Лекс Шрэпнел и другие .</span>
<span class="post-font-serif1">Описание: Сверхсекретная операция, которую выполняет образцовый спецагент, с треском провалена из-за некстати свалившегося на его голову неадекватного брата — оголтелого футбольного фаната и полного беспредельщика. Теперь герою предстоит спасти свою жизнь и вдобавок планету от нависшей над ней угрозы — практически невыполнимая задача в тандеме с вновь приобретенным родственником.</span>
<span class="post-font-serif1">Релиз группы </span>
<span class="post-font-serif1">Качество: HDRip / рип с BDRip 1080p
Формат: MP4
Видео кодек: H.264
Аудио кодек: AAC
Видео: 960x400 AR:2.40 1232 kbps 23.976 fps
Аудио №1: [Russian] 2ch 48 kHz 128 kbps - [Dub] Профессиональный (полное дублирование) BD CEE |Лицензия|
Аудио №2: [English] 2ch 48 kHz 128 kbps - Оригинал (Английский)</span>
avs [info]: 960x400p 1:1 @ 2997/125 fps (cfr)
x264 [info]: using SAR=1/1
x264 [info]: using cpu capabilities: MMX2 SSE2Fast SSSE3 SSE4.2 AVX FMA3 AVX2 LZCNT BMI2
x264 [info]: profile High, level 4.1

x264 [info]: frame I:1521 Avg QP:18.53 size: 41945
x264 [info]: frame P:32393 Avg QP:21.78 size: 11921
x264 [info]: frame B:85629 Avg QP:23.93 size: 3706
x264 [info]: consecutive B-frames: 5.7% 6.1% 11.6% 33.8% 13.9% 21.3% 3.5% 3.3% 0.8%
x264 [info]: mb I I16..4: 6.4% 67.7% 25.9%
x264 [info]: mb P I16..4: 2.1% 11.8% 2.5% P16..4: 33.9% 35.7% 8.6% 0.0% 0.0% skip: 5.4%
x264 [info]: mb B I16..4: 0.2% 1.3% 0.2% B16..8: 37.5% 16.5% 2.2% direct: 2.7% skip:39.2% L0:42.7% L1:48.6% BI: 8.7%
x264 [info]: 8x8 transform intra:71.5% inter:64.7%
x264 [info]: direct mvs spatial:97.6% temporal:2.4%
x264 [info]: coded y,uvDC,uvAC intra: 77.6% 70.5% 35.3% inter: 15.8% 10.7% 3.0%
x264 [info]: i16 v,h,dc,p: 16% 17% 4% 63%
x264 [info]: i8 v,h,dc,ddl,ddr,vr,hd,vl,hu: 7% 7% 5% 10% 15% 14% 16% 12% 15%
x264 [info]: i4 v,h,dc,ddl,ddr,vr,hd,vl,hu: 11% 9% 5% 9% 14% 13% 14% 10% 13%
x264 [info]: i8c dc,h,v,p: 32% 31% 19% 18%
x264 [info]: Weighted P-Frames: Y:12.3% UV:7.9%
x264 [info]: ref P L0: 56.3% 11.7% 14.2% 5.9% 3.8% 3.4% 2.4% 1.8% 0.3% 0.0%
x264 [info]: ref B L0: 83.1% 8.3% 4.2% 1.8% 1.4% 0.8% 0.4%
x264 [info]: ref B L1: 95.6% 4.4%
x264 [info]: kb/s:1231.07

encoded 119543 frames, 18.31 fps, 1231.07 kb/s
GeneralComplete name : D:\Torrents\Grimsby.2016.HDRip.x264.960x.rip by Frost O.S.mp4Format : MPEG-4Format profile : Base MediaCodec ID : isom (isom/avc1/iso2)File size : 891 MiBDuration : 1 h 23 minOverall bit rate mode : VariableOverall bit rate : 1 498 kb/sMovie name : Grimsby 2016 HDRip x264 960x rip by Frost O SContentType : Short FilmEncoded date : UTC 2016-12-21 08:48:50Tagged date : UTC 2016-12-21 08:49:48Writing application : MkvToMp4 version: 0.224 (x64)Cover : YesComment : rip by Frost O.S

VideoID : 1Format : AVCFormat/Info : Advanced Video CodecFormat profile : [email protected] settings, CABAC : YesFormat settings, ReFrames : 8 framesCodec ID : avc1Codec ID/Info : Advanced Video CodingDuration : 1 h 23 minBit rate : 1 232 kb/sMaximum bit rate : 6 173 kb/sWidth : 960 pixelsHeight : 400 pixelsDisplay aspect ratio : 2.40:1Frame rate mode : ConstantFrame rate : 23.976 (24000/1001) FPSOriginal frame rate : 23.976 (23976/1000) FPSColor space : YUVChroma subsampling : 4:2:0Bit depth : 8 bitsScan type : ProgressiveBits/(Pixel*Frame) : 0.134Stream size : 732 MiB (82%)Writing library : x264 core 148 r2705 3f5ed56Encoding settings : cabac=1 / ref=8 / deblock=1:-1:-1 / analyse=0x3:0x113 / me=umh / subme=11 / psy=1 / psy_rd=1.00:0.00 / mixed_ref=1 / me_range=32 / chroma_me=1 / trellis=2 / 8x8dct=1 / cqm=0 / deadzone=21,11 / fast_pskip=0 / chroma_qp_offset=-2 / threads=6 / lookahead_threads=1 / sliced_threads=0 / nr=0 / decimate=0 / interlaced=0 / bluray_compat=0 / constrained_intra=0 / bframes=8 / b_pyramid=2 / b_adapt=2 / b_bias=0 / direct=3 / weightb=1 / open_gop=0 / weightp=2 / keyint=250 / keyint_min=23 / scenecut=40 / intra_refresh=0 / rc=2pass / mbtree=0 / bitrate=1232 / ratetol=1.0 / qcomp=0.70 / qpmin=0 / qpmax=69 / qpstep=4 / cplxblur=20.0 / qblur=0.5 / ip_ratio=1.40 / pb_ratio=1.30 / aq=1:0.90Language : EnglishEncoded date : UTC 2016-12-21 08:48:50Tagged date : UTC 2016-12-21 08:49:10Color range : LimitedColor primaries : BT.709Transfer characteristics : BT.709Matrix coefficients : BT.709

Audio #1ID : 2Format : AACFormat/Info : Advanced Audio CodecFormat profile : LCCodec ID : 40Duration : 1 h 23 minBit rate mode : VariableBit rate : 128 kb/sMaximum bit rate : 135 kb/sChannel(s) : 2 channelsChannel positions : Front: L RSampling rate : 48.0 kHzFrame rate : 46.875 FPS (1024 spf)Compression mode : LossyStream size : 76.2 MiB (9%)Title : Dub _Licenziya_ / Dub _Licenziya_Language : RussianDefault : YesAlternate group : 1Encoded date : UTC 2016-12-21 08:48:59Tagged date : UTC 2016-12-21 08:49:10

Audio #2ID : 3Format : AACFormat/Info : Advanced Audio CodecFormat profile : LCCodec ID : 40Duration : 1 h 23 minBit rate mode : VariableBit rate : 128 kb/sMaximum bit rate : 135 kb/sChannel(s) : 2 channelsChannel positions : Front: L RSampling rate : 48.0 kHzFrame rate : 46.875 FPS (1024 spf)Compression mode : LossyStream size : 76.1 MiB (9%)Title : Original / OriginalLanguage : EnglishDefault : NoAlternate group : 1Encoded date : UTC 2016-12-21 08:49:06Tagged date : UTC 2016-12-21 08:49:10

Text #1ID : 4Format : Timed TextMuxing mode : sbtlCodec ID : tx3gDuration : 1 h 16 minBit rate mode : VariableBit rate : 4 b/sStream size : 2.05 KiB (0%)Title : forced / forcedLanguage : RussianDefault : YesForced : NoAlternate group : 2Encoded date : UTC 2016-12-21 08:49:10Tagged date : UTC 2016-12-21 08:49:10

Text #2ID : 5Format : Timed TextMuxing mode : sbtlCodec ID : tx3gDuration : 1 h 22 minBit rate mode : VariableBit rate : 109 b/sStream size : 66.1 KiB (0%)Title : Full / FullLanguage : RussianDefault : NoForced : NoAlternate group : 2Encoded date : UTC 2016-12-21 08:49:10Tagged date : UTC 2016-12-21 08:49:10

Text #3ID : 6Format : Timed TextMuxing mode : sbtlCodec ID : tx3gDuration : 1 h 22 minBit rate mode : VariableBit rate : 63 b/sStream size : 38.3 KiB (0%)Title : Full / FullLanguage : EnglishDefault : NoForced : NoAlternate group : 2Encoded date : UTC 2016-12-21 08:49:10Tagged date : UTC 2016-12-21 08:49:10

Text #4ID : 7Format : Timed TextMuxing mode : sbtlCodec ID : tx3gDuration : 1 h 22 minBit rate mode : VariableBit rate : 77 b/sStream size : 46.8 KiB (0%)Title : SDH / SDHLanguage : EnglishDefault : NoForced : NoAlternate group : 2Encoded date : UTC 2016-12-21 08:49:10Tagged date : UTC 2016-12-21 08:49:10


Трекер:  [ 21-Дек-2016 12:00 ]

  

Скачать .torrent

Размер .torrent файла 18 KB


Размер: 891 MB
Хэш (hash) релиза: 453ec138b1c44ce5a0ce7254a89a20f7b4c1fdf0

Торренты, похожие на [VIDEO] Братья из Гримсби Grimsby скачать торрент

Форум Название Автор Размер S L Добавлен
Видео (Фильмы/Клипы) ·· [VIDEO] Братья из Гримсби / Grimsby (Луи Летерье / Louis Leterrier) [2016, боевик, комедия, HDRip] [MP4, 480x] Dub Galfimbul 398495619380 MB 0 0 1482315215

13:13

21-Дек-16

Еще никто не оставлял запись к записи скачать торрент [VIDEO] Братья из Гримсби Grimsby . Будь первым!

!Обратная связь