Astronomy | Gossip Girl Thailand | Sound clips

Скачать через торрент [VIDEO] Братья из Гримсби Grimsby бесплатно русская версия torrent активатор

Статистика раздачи
Размер:  380 MB   |    Зарегистрирован:  1 год 7 месяцев   |    .torrent скачан:  13 раз   |   
Раздают:  1  
   
загрузка...
 
Автор Сообщение

Galfimbul

avatar Galfimbul


<span class="post-font-serif1">Братья из Гримсби / Grimsby</span>

<span class="post-font-serif1">Год выпуска: 2016
Страна: Великобритания, Австралия / Columbia Pictures
Жанр: боевик, комедия
Продолжительность: 01:23:10
Перевод: русский Профессиональный (полное дублирование) BD CEE |Лицензия|
Cубтитры: нет</span>
<span class="post-font-serif1">Режиссер: Луи Летерье / Louis Leterrier</span>
<span class="post-font-serif1">В ролях: Саша Барон Коэн, Марк Стронг, Ребел Уилсон, Пенелопа Крус, Айла Фишер, Скотт Эдкинс, Иэн МакШейн, Габури Сидибе, Аннабелль Уоллис, Дэвид Хэрвуд, Рикки Томлинсон, Джонни Вегас, Сэм Хэзелдайн, Фредди Краудер, Джон-Джон Локвуд, Шон Томас, Клаудия Эдшид, Лекс Шрэпнел и другие .</span>
<span class="post-font-serif1">Описание: Сверхсекретная операция, которую выполняет образцовый спецагент, с треском провалена из-за некстати свалившегося на его голову неадекватного брата — оголтелого футбольного фаната и полного беспредельщика. Теперь герою предстоит спасти свою жизнь и вдобавок планету от нависшей над ней угрозы — практически невыполнимая задача в тандеме с вновь приобретенным родственником.</span>
<span class="post-font-serif1">Релиз группы </span>
<span class="post-font-serif1">Качество: HDRip / рип с BDRip 1080p
Формат: MP4
Видео кодек: XviD
Аудио кодек: AAC
Видео: 480x200 AR:2.40 503 kbps 23.976 fps
Аудио: [Russian] 2ch 48 kHz 128 kbps - [Dub] Профессиональный (полное дублирование) BD CEE |Лицензия|</span>
GeneralComplete name : D:\Torrents\Grimsby.2016.HDRip.XviD.480x.rip by Frost O.S.mp4Format : MPEG-4Format profile : Base MediaCodec ID : isom (isom/iso2)File size : 380 MiBDuration : 1 h 23 minOverall bit rate mode : VariableOverall bit rate : 639 kb/sMovie name : Grimsby 2016 HDRip XviD 480x rip by Frost O SContentType : Short FilmEncoded date : UTC 2016-12-21 08:51:55Tagged date : UTC 2016-12-21 08:52:12Writing application : MkvToMp4 version: 0.224 (x64)Cover : YesComment : rip by Frost O.S

VideoID : 1Format : MPEG-4 VisualFormat profile : Advanced [email protected] settings, BVOP : YesFormat settings, QPel : NoFormat settings, GMC : No warppointsFormat settings, Matrix : CustomCodec ID : 20Duration : 1 h 23 minBit rate mode : VariableBit rate : 503 kb/sMaximum bit rate : 193 Mb/sWidth : 480 pixelsHeight : 200 pixelsDisplay aspect ratio : 2.40:1Frame rate mode : VariableFrame rate : 23.976 (23976/1000) FPSMinimum frame rate : 11.988 FPSMaximum frame rate : 23.976 FPSColor space : YUVChroma subsampling : 4:2:0Bit depth : 8 bitsScan type : ProgressiveCompression mode : LossyBits/(Pixel*Frame) : 0.219Stream size : 299 MiB (79%)Title : avi_GPAC0.5.2_DEV_rev248_g39d5978_masterWriting library : XviD 1.2.1 (UTC 2008-12-04)Language : EnglishTagged date : UTC 2016-12-21 08:52:01

AudioID : 2Format : AACFormat/Info : Advanced Audio CodecFormat profile : LCCodec ID : 40Duration : 1 h 23 minBit rate mode : VariableBit rate : 128 kb/sMaximum bit rate : 135 kb/sChannel(s) : 2 channelsChannel positions : Front: L RSampling rate : 48.0 kHzFrame rate : 46.875 FPS (1024 spf)Compression mode : LossyStream size : 76.2 MiB (20%)Title : Dub _Licenziya_ / Dub _Licenziya_Language : RussianDefault : YesAlternate group : 1Encoded date : UTC 2016-12-21 08:52:00Tagged date : UTC 2016-12-21 08:52:01


Трекер:  [ 21-Дек-2016 12:00 ]

  

Скачать .torrent

Размер .torrent файла 15 KB


Размер: 380 MB
Хэш (hash) релиза: 535e3b422ed2938fb8fddf0727bd2d59647bca80

Торренты, похожие на [VIDEO] Братья из Гримсби Grimsby скачать торрент

Форум Название Автор Размер S L Добавлен
Видео (Фильмы/Клипы) ·· [VIDEO] Братья из Гримсби / Grimsby (Луи Летерье / Louis Leterrier) [2016, боевик, комедия, HDRip] [MP4, 960x] Dub, Original, Sub (rus, eng) Galfimbul 934515689891 MB 0 0 1482315218

13:13

21-Дек-16

Еще никто не оставлял запись к записи скачать торрент [VIDEO] Братья из Гримсби Grimsby . Будь первым!

!Обратная связь