Top Videos | canadien | Lilin Herlina - SECAWAN MADU - New Pallapa

Скачать через торрент [MULT] Полный расколбас Сосисочная вечеринка бесплатно русская версия torrent активатор

Статистика раздачи
Размер:  944 MB   |    Зарегистрирован:  1 год 6 месяцев   |    .torrent скачан:  25 раз   |   
Раздают:  1  
   
загрузка...
 
Автор Сообщение

Galfimbul

avatar Galfimbul


<span class="post-font-serif1">Полный расколбас / Сосисочная вечеринка / Sausage Party</span>

<span class="post-font-serif1">Год выпуска: 2016
Страна: США / Annapurna Pictures, Columbia Pictures
Жанр: мультфильм, фэнтези, комедия, приключения
Продолжительность: 01:28:45
Перевод №1: русский Профессиональный (полное дублирование) Blu-ray CEE
Перевод №2: русский Авторский (одноголосый, закадровый) Михаил Чадов
Оригинальная дорожка: Есть
Cубтитры: русские (Forced iTunes, Full iTunes), английские (Full iTunes)</span>
<span class="post-font-serif1">Режиссеры: Грег Тирнан / Greg Tiernan, Конрад Вернон / Conrad Vernon</span>
<span class="post-font-serif1">В ролях: Сет Роген (Frank / Sergeant Pepper), Кристен Уиг (Brenda), Джона Хилл (Carl), Билл Хейдер (Firewater / Tequila / El Guaco), Майкл Сера (Barry), Джеймс Франко (Druggie), Дэнни МакБрайд (Honey Mustard), Крэйг Робинсон (Grits), Пол Радд (Darren), Ник Кролл (Douche), Дэвид Крамхолц (Lavash), Эдвард Нортон (Sammy), Сальма Хайек (Teresa) и другие .</span>
<span class="post-font-serif1">Описание: Первая анимационная комедия для взрослых о невероятных приключениях еды из супермаркета. Съедобным друзьям предстоит получить ответ на главный вопрос: есть ли жизнь за стенами супермаркета, и что же происходит с продуктами после того, как они попадают к людям домой?</span>
<span class="post-font-serif1">Релиз группы </span>
<span class="post-font-serif1">Качество: HDRip / рип с BDRip 720p
Формат: MP4
Видео кодек: H.264
Аудио кодек: AAC
Видео: 960x518 AR:1.85 1088 kbps 23.976 fps
Аудио №1: [Russian] 2ch 48 kHz 128 kbps - [Dub] Профессиональный (полное дублирование) Blu-ray CEE
Аудио №2: [Russian] 2ch 48 kHz 128 kbps - [VO] Авторский (одноголосый, закадровый) Михаил Чадов
Аудио №3: [English] 2ch 48 kHz 128 kbps - Оригинал (Английский)</span>
avs [info]: 960x518p 1:1 @ 2997/125 fps (cfr)
x264 [info]: using SAR=1/1
x264 [info]: using cpu capabilities: MMX2 SSE2Fast SSSE3 SSE4.2 AVX FMA3 AVX2 LZCNT BMI2
x264 [info]: profile High, level 4.1

x264 [info]: frame I:1194 Avg QP:19.06 size: 37663
x264 [info]: frame P:34890 Avg QP:23.35 size: 10597
x264 [info]: frame B:91596 Avg QP:24.97 size: 3380
x264 [info]: consecutive B-frames: 5.3% 5.5% 12.7% 37.1% 10.8% 22.4% 1.8% 4.0% 0.4%
x264 [info]: mb I I16..4: 11.2% 65.8% 23.0%
x264 [info]: mb P I16..4: 2.9% 9.8% 1.9% P16..4: 35.7% 31.9% 6.1% 0.0% 0.0% skip:11.7%
x264 [info]: mb B I16..4: 0.3% 1.0% 0.2% B16..8: 32.5% 12.1% 1.5% direct: 1.8% skip:50.6% L0:42.6% L1:50.2% BI: 7.2%
x264 [info]: 8x8 transform intra:67.6% inter:71.4%
x264 [info]: direct mvs spatial:94.4% temporal:5.6%
x264 [info]: coded y,uvDC,uvAC intra: 62.4% 68.5% 34.4% inter: 9.9% 10.1% 2.4%
x264 [info]: i16 v,h,dc,p: 10% 15% 3% 72%
x264 [info]: i8 v,h,dc,ddl,ddr,vr,hd,vl,hu: 9% 7% 6% 10% 15% 14% 15% 12% 13%
x264 [info]: i4 v,h,dc,ddl,ddr,vr,hd,vl,hu: 12% 10% 7% 9% 15% 13% 13% 9% 12%
x264 [info]: i8c dc,h,v,p: 26% 31% 20% 23%
x264 [info]: Weighted P-Frames: Y:9.8% UV:6.4%
x264 [info]: ref P L0: 52.3% 9.1% 15.7% 5.9% 4.6% 3.8% 3.1% 1.8% 1.6% 1.7% 0.3% 0.0%
x264 [info]: ref B L0: 79.1% 8.5% 4.8% 2.3% 1.7% 1.5% 1.2% 0.6% 0.4%
x264 [info]: ref B L1: 95.5% 4.5%
x264 [info]: kb/s:1088.05

encoded 127680 frames, 16.11 fps, 1088.05 kb/s
GeneralComplete name : D:\Torrents\Sausage Party.2016.HDRip.x264.960x.rip by Frost O.S.mp4Format : MPEG-4Format profile : Base MediaCodec ID : isom (isom/avc1/iso2)File size : 944 MiBDuration : 1 h 28 minOverall bit rate mode : VariableOverall bit rate : 1 488 kb/sMovie name : Sausage Party 2016 HDRip x264 960x rip by Frost O SContentType : Short FilmEncoded date : UTC 2016-12-21 09:22:24Tagged date : UTC 2016-12-21 09:23:37Writing application : MkvToMp4 version: 0.224 (x64)Cover : YesComment : rip by Frost O.S

VideoID : 1Format : AVCFormat/Info : Advanced Video CodecFormat profile : [email protected] settings, CABAC : YesFormat settings, ReFrames : 10 framesCodec ID : avc1Codec ID/Info : Advanced Video CodingDuration : 1 h 28 minBit rate : 1 088 kb/sMaximum bit rate : 5 132 kb/sWidth : 960 pixelsHeight : 518 pixelsDisplay aspect ratio : 1.85:1Frame rate mode : ConstantFrame rate : 23.976 (24000/1001) FPSOriginal frame rate : 23.976 (23976/1000) FPSColor space : YUVChroma subsampling : 4:2:0Bit depth : 8 bitsScan type : ProgressiveBits/(Pixel*Frame) : 0.091Stream size : 691 MiB (73%)Writing library : x264 core 148 r2705 3f5ed56Encoding settings : cabac=1 / ref=10 / deblock=1:-2:-2 / analyse=0x3:0x113 / me=umh / subme=11 / psy=1 / psy_rd=0.90:0.00 / mixed_ref=1 / me_range=32 / chroma_me=1 / trellis=2 / 8x8dct=1 / cqm=0 / deadzone=21,11 / fast_pskip=0 / chroma_qp_offset=-2 / threads=6 / lookahead_threads=1 / sliced_threads=0 / nr=0 / decimate=0 / interlaced=0 / bluray_compat=0 / constrained_intra=0 / bframes=8 / b_pyramid=2 / b_adapt=2 / b_bias=0 / direct=3 / weightb=1 / open_gop=0 / weightp=2 / keyint=250 / keyint_min=23 / scenecut=40 / intra_refresh=0 / rc=2pass / mbtree=0 / bitrate=1088 / ratetol=1.0 / qcomp=0.60 / qpmin=0 / qpmax=69 / qpstep=4 / cplxblur=20.0 / qblur=0.5 / ip_ratio=1.40 / pb_ratio=1.30 / aq=1:0.80Language : EnglishEncoded date : UTC 2016-12-21 09:22:24Tagged date : UTC 2016-12-21 09:22:38Color range : LimitedColor primaries : BT.709Transfer characteristics : BT.709Matrix coefficients : BT.709

Audio #1ID : 2Format : AACFormat/Info : Advanced Audio CodecFormat profile : LCCodec ID : 40Duration : 1 h 28 minBit rate mode : VariableBit rate : 128 kb/sMaximum bit rate : 135 kb/sChannel(s) : 2 channelsChannel positions : Front: L RSampling rate : 48.0 kHzFrame rate : 46.875 FPS (1024 spf)Compression mode : LossyStream size : 81.3 MiB (9%)Title : Dub_ Blu_ray CEE / Dub_ Blu_ray CEELanguage : RussianDefault : YesAlternate group : 1Encoded date : UTC 2016-12-21 09:22:33Tagged date : UTC 2016-12-21 09:22:38

Audio #2ID : 3Format : AACFormat/Info : Advanced Audio CodecFormat profile : LCCodec ID : 40Duration : 1 h 28 minBit rate mode : VariableBit rate : 128 kb/sMaximum bit rate : 135 kb/sChannel(s) : 2 channelsChannel positions : Front: L RSampling rate : 48.0 kHzFrame rate : 46.875 FPS (1024 spf)Compression mode : LossyStream size : 81.3 MiB (9%)Title : VO_ Mikhail Chadov / VO_ Mikhail ChadovLanguage : RussianDefault : NoAlternate group : 1Encoded date : UTC 2016-12-21 09:22:35Tagged date : UTC 2016-12-21 09:22:38

Audio #3ID : 4Format : AACFormat/Info : Advanced Audio CodecFormat profile : LCCodec ID : 40Duration : 1 h 28 minBit rate mode : VariableBit rate : 128 kb/sMaximum bit rate : 135 kb/sChannel(s) : 2 channelsChannel positions : Front: L RSampling rate : 48.0 kHzFrame rate : 46.875 FPS (1024 spf)Compression mode : LossyStream size : 81.3 MiB (9%)Title : Original / OriginalLanguage : EnglishDefault : NoAlternate group : 1Encoded date : UTC 2016-12-21 09:22:36Tagged date : UTC 2016-12-21 09:22:38

Text #1ID : 5Format : Timed TextMuxing mode : sbtlCodec ID : tx3gDuration : 1 h 23 minBit rate mode : VariableBit rate : 5 b/sStream size : 2.96 KiB (0%)Title : Forced_ iTunes / Forced_ iTunesLanguage : RussianDefault : YesForced : NoAlternate group : 2Encoded date : UTC 2016-12-21 09:22:38Tagged date : UTC 2016-12-21 09:22:38

Text #2ID : 6Format : Timed TextMuxing mode : sbtlCodec ID : tx3gDuration : 1 h 23 minBit rate mode : VariableBit rate : 137 b/sStream size : 83.9 KiB (0%)Title : Full iTunes / Full iTunesLanguage : RussianDefault : NoForced : NoAlternate group : 2Encoded date : UTC 2016-12-21 09:22:38Tagged date : UTC 2016-12-21 09:22:38

Text #3ID : 7Format : Timed TextMuxing mode : sbtlCodec ID : tx3gDuration : 1 h 21 minBit rate mode : VariableBit rate : 90 b/sStream size : 53.5 KiB (0%)Title : Full iTunes / Full iTunesLanguage : EnglishDefault : NoForced : NoAlternate group : 2Encoded date : UTC 2016-12-21 09:22:38Tagged date : UTC 2016-12-21 09:22:38


Трекер:  [ 21-Дек-2016 12:00 ]

  

Скачать .torrent

Размер .torrent файла 19 KB


Размер: 944 MB
Хэш (hash) релиза: 01f392638d10d66531a985ef510c7ef96cfacaec

Еще никто не оставлял запись к записи скачать торрент [MULT] Полный расколбас Сосисочная вечеринка . Будь первым!

!Обратная связь