John Deere Lawn Tractor Wiring Diagram | Vol. 1 Ch. 11 - Pocket Money | Ouran High School Host Club

Скачать через торрент [MULT] Полный расколбас Сосисочная вечеринка бесплатно русская версия torrent активатор

Статистика раздачи
Размер:  403 MB   |    Зарегистрирован:  1 год 6 месяцев   |    .torrent скачан:  13 раз   |   
Раздают:  1  
   
загрузка...
 
Автор Сообщение

Galfimbul

avatar Galfimbul


<span class="post-font-serif1">Полный расколбас / Сосисочная вечеринка / Sausage Party</span>

<span class="post-font-serif1">Год выпуска: 2016
Страна: США / Annapurna Pictures, Columbia Pictures
Жанр: мультфильм, фэнтези, комедия, приключения
Продолжительность: 01:28:45
Перевод: русский Профессиональный (полное дублирование) Blu-ray CEE
Cубтитры: нет</span>
<span class="post-font-serif1">Режиссеры: Грег Тирнан / Greg Tiernan, Конрад Вернон / Conrad Vernon</span>
<span class="post-font-serif1">В ролях: Сет Роген (Frank / Sergeant Pepper), Кристен Уиг (Brenda), Джона Хилл (Carl), Билл Хейдер (Firewater / Tequila / El Guaco), Майкл Сера (Barry), Джеймс Франко (Druggie), Дэнни МакБрайд (Honey Mustard), Крэйг Робинсон (Grits), Пол Радд (Darren), Ник Кролл (Douche), Дэвид Крамхолц (Lavash), Эдвард Нортон (Sammy), Сальма Хайек (Teresa) и другие .</span>
<span class="post-font-serif1">Описание: Первая анимационная комедия для взрослых о невероятных приключениях еды из супермаркета. Съедобным друзьям предстоит получить ответ на главный вопрос: есть ли жизнь за стенами супермаркета, и что же происходит с продуктами после того, как они попадают к людям домой?</span>
<span class="post-font-serif1">Релиз группы </span>
<span class="post-font-serif1">Качество: HDRip / рип с BDRip 720p
Формат: MP4
Видео кодек: XviD
Аудио кодек: AAC
Видео: 480x256 AR:1.85 499 kbps 23.976 fps
Аудио: [Russian] 2ch 48 kHz 128 kbps - [Dub] Профессиональный (полное дублирование) Blu-ray CEE</span>
GeneralComplete name : D:\Torrents\Sausage Party.2016.HDRip.XviD.480x.rip by Frost O.S.mp4Format : MPEG-4Format profile : Base MediaCodec ID : isom (isom/iso2)File size : 403 MiBDuration : 1 h 28 minOverall bit rate mode : VariableOverall bit rate : 635 kb/sMovie name : Sausage Party 2016 HDRip XviD 480x rip by Frost O SContentType : Short FilmEncoded date : UTC 2016-12-21 09:25:28Tagged date : UTC 2016-12-21 09:25:48Writing application : MkvToMp4 version: 0.224 (x64)Cover : YesComment : rip by Frost O.S

VideoID : 1Format : MPEG-4 VisualFormat profile : Advanced [email protected] settings, BVOP : YesFormat settings, QPel : NoFormat settings, GMC : No warppointsFormat settings, Matrix : CustomCodec ID : 20Duration : 1 h 28 minBit rate mode : VariableBit rate : 499 kb/sMaximum bit rate : 3 840 kb/sWidth : 480 pixelsHeight : 256 pixelsDisplay aspect ratio : 1.85:1Frame rate mode : ConstantFrame rate : 23.976 (24000/1001) FPSOriginal frame rate : 23.976 (23976/1000) FPSColor space : YUVChroma subsampling : 4:2:0Bit depth : 8 bitsScan type : ProgressiveCompression mode : LossyBits/(Pixel*Frame) : 0.169Stream size : 317 MiB (79%)Title : avi_GPAC0.5.2_DEV_rev248_g39d5978_masterWriting library : XviD 1.2.1 (UTC 2008-12-04)Language : EnglishTagged date : UTC 2016-12-21 09:25:35

AudioID : 2Format : AACFormat/Info : Advanced Audio CodecFormat profile : LCCodec ID : 40Duration : 1 h 28 minBit rate mode : VariableBit rate : 128 kb/sMaximum bit rate : 135 kb/sChannel(s) : 2 channelsChannel positions : Front: L RSampling rate : 48.0 kHzFrame rate : 46.875 FPS (1024 spf)Compression mode : LossyStream size : 81.3 MiB (20%)Title : Dub_ Blu_ray CEE / Dub_ Blu_ray CEELanguage : RussianDefault : YesAlternate group : 1Encoded date : UTC 2016-12-21 09:25:33Tagged date : UTC 2016-12-21 09:25:35


Трекер:  [ 21-Дек-2016 12:00 ]

  

Скачать .torrent

Размер .torrent файла 16 KB


Размер: 403 MB
Хэш (hash) релиза: 9e96e2017798c306a669a8d50713bb9ccc520cf2

Еще никто не оставлял запись к записи скачать торрент [MULT] Полный расколбас Сосисочная вечеринка . Будь первым!

!Обратная связь