Blue Bloods - Crime Scene New York | Vampires | Cyborg 009: Call of Justice

Скачать через торрент [MULT] Тайная жизнь домашних животных The Secret Life of Pets бесплатно русская версия torrent активатор

Статистика раздачи
Размер:  1.62 GB   |    Зарегистрирован:  1 год 6 месяцев   |    .torrent скачан:  30 раз   |   
Раздают:  1  
   
загрузка...
 
Автор Сообщение

Galfimbul

avatar Galfimbul


Тайная жизнь домашних животных / The Secret Life of Pets
«Думаете, они ждут вас у порога весь день?»
Премьера: 2016
Оригинальное название: The Secret Life of Pets
Страна: Япония, США
Жанр: мультфильм, комедия, приключения, семейный
Возраст: 6+

Режиссер: Ярроу Чейни, Крис Рено

В ролях: Луис С.К., Эрик Стоунстрит, Кевин Харт, Дженни Слейт, Элли Кемпер, Альберт Брукс, Лэйк Белл, Дэна Карви, Хэннибал Бёресс, Бобби Мойнахан

Описание: Что делают домашние животные пока хозяева пропадают на работе? С тоской смотрят в окно? Смиренно дремлют на коврике у двери? Как бы не так. Они ведут свою тайную жизнь. Сюжет повествует о Кэти и её питомце псе Максе, который привык быть единственным любимцем своей хозяйки Кэтти. Живут они душа в душу, как лучшие друзья. Но, в один прекрасный момент идиллия прекращается, ведь в дом приводят нового питомца — Дюка. И Макс начинает недолюбливать соседа, еще бы, ведь Дюк забирает внимание хозяйки на себя, да что он вообще себе позволяет? Макс решает проучить Дюка, и избавится от него, чтобы любовь Кэтти вновь доставалась лишь ему одному, в результате чего оба оказываются далеко от дома и теперь им придется как-то взаимодействовать друг с другом, чтобы вместе найти дорогу домой...

Продолжительность: 01:26:27
Перевод: Дублированный [Лицензия]
Оригинальная дорожка: нет

Автор рипа:

Качество видео: BDRip Исходник: Blu-Ray (1080p) Формат: mp4
Видео кодек: MPEG-4 AVC Аудио кодек: AAC
Видео: 1280x692 (1.85:1) at 23.976 fps, AVC at 2 421 kbps avg, 0.114 bit/pixel
Аудио №1 Rus: 48.0 KHz, AAC, 2 ch, 128.0 Kbps
Аудио №2 Ukr: 48.0 KHz, AAC, 2 ch, 128.0 Kbps
Субтитры: нет
Навигация по главам: есть
Размер: 1.62 GiB
avs [info]: 1280x692p 1:1 @ 24000/1001 fps (cfr)
x264 [info]: using SAR=1/1
x264 [info]: using cpu capabilities: MMX2 SSE2Fast SSSE3 Cache64
x264 [info]: profile High, level 4.1
x264 [info]: frame I:1022 Avg QP:15.56 size:143015
x264 [info]: frame P:24245 Avg QP:19.20 size: 27567
x264 [info]: frame B:99100 Avg QP:23.48 size: 7624
x264 [info]: consecutive B-frames: 1.8% 2.0% 4.8% 14.9% 14.4% 39.1% 7.7% 6.1% 3.3% 2.4% 3.6%
x264 [info]: mb I I16..4: 10.2% 65.0% 24.8%
x264 [info]: mb P I16..4: 2.8% 13.9% 1.7% P16..4: 34.7% 14.4% 9.2% 0.0% 0.0% skip:23.2%
x264 [info]: mb B I16..4: 0.3% 1.9% 0.3% B16..8: 28.8% 5.8% 1.2% direct: 2.8% skip:58.7% L0:44.2% L1:47.9% BI: 7.9%
x264 [info]: 8x8 transform intra:73.5% inter:75.0%
x264 [info]: coded y,uvDC,uvAC intra: 69.2% 80.0% 50.2% inter: 12.3% 16.2% 3.4%
x264 [info]: i16 v,h,dc,p: 29% 19% 5% 47%
x264 [info]: i8 v,h,dc,ddl,ddr,vr,hd,vl,hu: 20% 20% 14% 5% 8% 8% 9% 7% 8%
x264 [info]: i4 v,h,dc,ddl,ddr,vr,hd,vl,hu: 27% 19% 9% 5% 10% 9% 9% 6% 6%
x264 [info]: i8c dc,h,v,p: 44% 24% 21% 11%
x264 [info]: Weighted P-Frames: Y:3.0% UV:1.7%
x264 [info]: ref P L0: 52.8% 11.3% 13.7% 5.9% 4.7% 3.9% 3.2% 2.1% 2.1% 0.2% 0.0%
x264 [info]: ref B L0: 79.6% 8.7% 4.9% 2.3% 1.8% 1.5% 0.9% 0.3%
x264 [info]: ref B L1: 93.5% 6.5%
x264 [info]: kb/s:2421.51
encoded 124367 frames, 1.94 fps, 2421.51 kb/s
GeneralComplete name : D:\Torrents\Download\Tajnaya_zhizn_domashnix_zhivotnyx_2016_KinoGadget.mp4Format : MPEG-4Format profile : Base MediaCodec ID : isom (isom)File size : 1.62 GiBDuration : 1 h 26 minOverall bit rate mode : VariableOverall bit rate : 2 689 kb/sMovie name : Тайная жизнь домашних животных | KinoGadgetPerformer : Ярроу Чейни, Крис РеноDirector : Ярроу Чейни / Крис РеноActor : Луис С.К. / Эрик Стоунстрит / Кевин Харт / Дженни Слейт / Элли Кемпер / Альберт Брукс / Лэйк Белл / Дэна Карви / Хэннибал Бёресс / Бобби МойнаханScreenplay by : Синко Пол / Кен Даурио / Брайан ЛинчProducer : Джанет Хили / Бретт Хоффман / Кристофер МеледандриGenre : Adventure, Animation, Comedy, FamilyContentType : Short FilmRecorded date : 2016Encoded date : UTC 2016-12-21 08:30:59Tagged date : UTC 2016-12-21 08:47:48Cover : YesContentRating : mpaa|PG|200|LongDescription : Что делают домашние животные пока хозяева пропадают на работе? С тоской смотрят в окно? Смиренно дремлют на коврике у двери? Как бы не так. Они ведут свою тайную жизнь.HDVideo : Yes

VideoID : 1Format : AVCFormat/Info : Advanced Video CodecFormat profile : [email protected] settings, CABAC : YesFormat settings, ReFrames : 9 framesCodec ID : avc1Codec ID/Info : Advanced Video CodingDuration : 1 h 26 minBit rate : 2 421 kb/sMaximum bit rate : 12.7 Mb/sWidth : 1 280 pixelsHeight : 692 pixelsDisplay aspect ratio : 1.85:1Frame rate mode : ConstantFrame rate : 23.976 (24000/1001) FPSColor space : YUVChroma subsampling : 4:2:0Bit depth : 8 bitsScan type : ProgressiveBits/(Pixel*Frame) : 0.114Stream size : 1.46 GiB (90%)Writing library : x264 core 148 r2638 7599210Encoding settings : cabac=1 / ref=9 / deblock=1:1:1 / analyse=0x3:0x113 / me=umh / subme=7 / psy=1 / psy_rd=1.00:0.15 / mixed_ref=1 / me_range=32 / chroma_me=1 / trellis=2 / 8x8dct=1 / cqm=0 / deadzone=21,11 / fast_pskip=1 / chroma_qp_offset=-3 / threads=3 / lookahead_threads=1 / sliced_threads=0 / nr=0 / decimate=1 / interlaced=0 / bluray_compat=0 / constrained_intra=0 / bframes=10 / b_pyramid=2 / b_adapt=2 / b_bias=16 / direct=1 / weightb=1 / open_gop=0 / weightp=2 / keyint=240 / keyint_min=23 / scenecut=40 / intra_refresh=0 / rc_lookahead=60 / rc=crf / mbtree=1 / crf=20.0 / qcomp=0.60 / qpmin=0 / qpmax=69 / qpstep=4 / vbv_maxrate=62500 / vbv_bufsize=78125 / crf_max=0.0 / nal_hrd=none / filler=0 / ip_ratio=1.40 / aq=1:1.00Encoded date : UTC 2016-12-21 05:09:50Tagged date : UTC 2016-12-21 08:31:51

Audio #1ID : 2Format : AACFormat/Info : Advanced Audio CodecFormat profile : LCCodec ID : 40Duration : 1 h 26 minBit rate mode : VariableBit rate : 128 kb/sMaximum bit rate : 135 kb/sChannel(s) : 2 channelsChannel positions : Front: L RSampling rate : 48.0 kHzFrame rate : 46.875 FPS (1024 spf)Compression mode : LossyStream size : 79.2 MiB (5%)Title : Dub [license]Language : RussianEncoded date : UTC 2016-12-18 13:14:27Tagged date : UTC 2016-12-21 08:31:51

Audio #2ID : 3Format : AACFormat/Info : Advanced Audio CodecFormat profile : LCCodec ID : 40Duration : 1 h 26 minBit rate mode : VariableBit rate : 128 kb/sMaximum bit rate : 135 kb/sChannel(s) : 2 channelsChannel positions : Front: L RSampling rate : 48.0 kHzFrame rate : 46.875 FPS (1024 spf)Compression mode : LossyStream size : 79.2 MiB (5%)Title : Dub [license]Language : UkrainianEncoded date : UTC 2016-12-21 06:20:52Tagged date : UTC 2016-12-21 08:31:51

Menu00:00:00.000 : 00:00:00.00000:05:05.847 : 00:05:05.84700:09:24.063 : 00:09:24.06300:13:18.840 : 00:13:18.84000:18:03.666 : 00:18:03.66600:22:14.458 : 00:22:14.45800:28:51.855 : 00:28:51.85500:32:54.848 : 00:32:54.84800:36:55.839 : 00:36:55.83900:42:27.295 : 00:42:27.29500:44:46.767 : 00:44:46.76700:50:21.227 : 00:50:21.22700:54:45.407 : 00:54:45.40700:59:33.987 : 00:59:33.98701:02:36.544 : 01:02:36.54401:07:12.362 : 01:07:12.36201:13:06.841 : 01:13:06.84101:16:04.602 : 01:16:04.60201:18:48.057 : 01:18:48.05701:19:58.836 : 01:19:58.836
<a href="tracker.php?rid=39840292" class="postLink"> </a>

Трекер:  [ 21-Дек-2016 12:00 ]

  

Скачать .torrent

Размер .torrent файла 16 KB


Размер: 1.62 GB
Хэш (hash) релиза: e1312e23fb24c1e8527ebbdbc008dfc3d1907e1d

Еще никто не оставлял запись к записи скачать торрент [MULT] Тайная жизнь домашних животных The Secret Life of Pets . Будь первым!

!Обратная связь