Sega (2011) Telugu 720p WEBHD x264 AAC R... | Adventure | IMDb: 6.0 HD Blackmark

Скачать через торрент [VIDEO] Не дыши Dont Breathe бесплатно русская версия torrent активатор

Статистика раздачи
Размер:  1.42 GB   |    Зарегистрирован:  1 год 7 месяцев   |    .torrent скачан:  22 раза   |   
Раздают:  1  
   
загрузка...
 
Автор Сообщение

Galfimbul

avatar Galfimbul


Не дыши / Don't Breathe
«Когда охотник становится жертвой»
Премьера: 2016
Оригинальное название: Don't Breathe
Страна: США
Жанр: ужасы, триллер, криминал
Возраст: 18+

Режиссер: Федерико Альварес / Federico Alvarez

В ролях: Стивен Лэнг, Джейн Леви, Дилан Миннетт, Дэниэл Дзоватто, Эмма Берковичи, Франциска Тёрёчик, Кристиан Сахиа, Катя Бокор, Сергей Онопко, Оливия Гиллис

Описание: Грабители забираются в дом одинокого слепого старика с целью украсть огромную сумму, которая, по слухам, спрятана где-то внутри. Казалось бы — что может быть проще, чем вынести деньги из дома практически беспомощного человека. Но они жестоко ошибаются: преследуемый становится преследователем. И тайна, которую он хранит, гораздо страшнее, чем обычные пенсионные накопления.

Продолжительность: 01:28:32
Перевод: Дублированный [iTunes]
Оригинальная дорожка: нет

Автор рипа:

Качество видео: BDRip Исходник: Blu-Ray Remux (1080p) Формат: mp4
Видео кодек: MPEG-4 AVC Аудио кодек: AAC
Видео: 1280x532 (2.40:1) at 23.976 fps, AVC at 2 158 kbps avg, 0.132 bit/pixel
Аудио №1 Rus: 48.0 KHz, AAC, 2 ch, 128.0 Kbps
Субтитры: нет
Навигация по главам: нет
Размер: 1.42 GiB
avs [info]: 1280x532p 1:1 @ 24000/1001 fps (cfr)
x264 [info]: using SAR=1/1
x264 [info]: using cpu capabilities: MMX2 SSE2Fast SSSE3 Cache64
x264 [info]: profile High, level 4.1
x264 [info]: frame I:880 Avg QP:13.71 size:104677
x264 [info]: frame P:19767 Avg QP:16.89 size: 27148
x264 [info]: frame B:106720 Avg QP:19.01 size: 7536
x264 [info]: consecutive B-frames: 1.0% 0.4% 1.5% 6.4% 10.2% 30.9% 9.5% 14.9% 8.8% 8.7% 7.8%
x264 [info]: mb I I16..4: 10.4% 70.8% 18.8%
x264 [info]: mb P I16..4: 1.9% 9.9% 1.6% P16..4: 42.4% 21.1% 15.7% 0.0% 0.0% skip: 7.4%
x264 [info]: mb B I16..4: 0.1% 0.8% 0.1% B16..8: 44.0% 6.6% 1.1% direct: 4.6% skip:42.7% L0:44.8% L1:49.6% BI: 5.6%
x264 [info]: 8x8 transform intra:74.0% inter:66.0%
x264 [info]: coded y,uvDC,uvAC intra: 76.8% 84.4% 67.6% inter: 17.6% 21.6% 3.8%
x264 [info]: i16 v,h,dc,p: 31% 15% 18% 36%
x264 [info]: i8 v,h,dc,ddl,ddr,vr,hd,vl,hu: 19% 11% 34% 5% 6% 7% 6% 6% 6%
x264 [info]: i4 v,h,dc,ddl,ddr,vr,hd,vl,hu: 36% 12% 18% 5% 7% 6% 6% 5% 5%
x264 [info]: i8c dc,h,v,p: 56% 16% 19% 9%
x264 [info]: Weighted P-Frames: Y:5.4% UV:2.6%
x264 [info]: ref P L0: 47.2% 8.1% 19.2% 7.5% 5.9% 4.4% 3.7% 2.1% 1.9% 0.1% 0.0%
x264 [info]: ref B L0: 73.4% 12.4% 6.2% 2.9% 2.1% 1.7% 0.9% 0.3%
x264 [info]: ref B L1: 91.2% 8.8%
x264 [info]: kb/s:2158.08
encoded 127367 frames, 1.99 fps, 2158.08 kb/s
GeneralComplete name : D:\Torrents\Download\Ne_dyshi_2016_KinoGadget.mp4Format : MPEG-4Format profile : Base MediaCodec ID : isom (isom/avc1/iso6)File size : 1.42 GiBDuration : 1 h 28 minOverall bit rate mode : VariableOverall bit rate : 2 294 kb/sMovie name : Не дыши | KinoGadgetPerformer : Федерико АльваресDirector : Федерико АльваресActor : Стивен Лэнг / Джейн Леви / Дилан Миннетт / Дэниэл Дзоватто / Эмма Берковичи / Франциска Тёрёчик / Кристиан Сахиа / Катя Бокор / Сергей Онопко / Оливия ГиллисScreenplay by : Федерико Альварес / Родольфо СаягесProducer : Федерико Альварес / Сэм Рэйми / Дэррин БраунGenre : Crime, Horror, ThrillerContentType : Short FilmRecorded date : 2016Encoded date : UTC 2016-12-20 04:05:35Tagged date : UTC 2016-12-20 06:52:24Cover : YesContentRating : mpaa|R|400|LongDescription : Грабители забираются в дом одинокого слепого старика с целью украсть огромную сумму, которая, по слухам, спрятана где-то внутри. Казалось бы — что может быть проще, чем вынести деньги из дома практически беспомощного человека. Но они жестоко ошибаются: преследуемый становится преследователем. И тайна, которую он хранит, гораздо страшнее, чем обычные пенсионные накопления.HDVideo : Yes

VideoID : 1Format : AVCFormat/Info : Advanced Video CodecFormat profile : [email protected] settings, CABAC : YesFormat settings, ReFrames : 9 framesCodec ID : avc1Codec ID/Info : Advanced Video CodingDuration : 1 h 28 minBit rate : 2 158 kb/sMaximum bit rate : 9 718 kb/sWidth : 1 280 pixelsHeight : 532 pixelsDisplay aspect ratio : 2.40:1Frame rate mode : ConstantFrame rate : 23.976 (24000/1001) FPSColor space : YUVChroma subsampling : 4:2:0Bit depth : 8 bitsScan type : ProgressiveBits/(Pixel*Frame) : 0.132Stream size : 1.33 GiB (94%)Writing library : x264 core 148 r2638 7599210Encoding settings : cabac=1 / ref=9 / deblock=1:-2:-1 / analyse=0x3:0x113 / me=umh / subme=7 / psy=1 / psy_rd=1.00:0.15 / mixed_ref=1 / me_range=32 / chroma_me=1 / trellis=2 / 8x8dct=1 / cqm=0 / deadzone=21,11 / fast_pskip=1 / chroma_qp_offset=-3 / threads=3 / lookahead_threads=1 / sliced_threads=0 / nr=0 / decimate=1 / interlaced=0 / bluray_compat=0 / constrained_intra=0 / bframes=10 / b_pyramid=2 / b_adapt=2 / b_bias=16 / direct=1 / weightb=1 / open_gop=0 / weightp=2 / keyint=240 / keyint_min=23 / scenecut=40 / intra_refresh=0 / rc_lookahead=40 / rc=crf / mbtree=1 / crf=18.0 / qcomp=0.60 / qpmin=0 / qpmax=69 / qpstep=4 / vbv_maxrate=62500 / vbv_bufsize=78125 / crf_max=0.0 / nal_hrd=none / filler=0 / ip_ratio=1.40 / aq=1:1.00Encoded date : UTC 2016-12-20 04:05:35Tagged date : UTC 2016-12-20 04:06:39

AudioID : 2Format : AACFormat/Info : Advanced Audio CodecFormat profile : LCCodec ID : 40Duration : 1 h 28 minBit rate mode : VariableBit rate : 128 kb/sMaximum bit rate : 135 kb/sChannel(s) : 2 channelsChannel positions : Front: L RSampling rate : 48.0 kHzFrame rate : 46.875 FPS (1024 spf)Compression mode : LossyStream size : 81.1 MiB (6%)Title : Dub [iTunes]Language : RussianEncoded date : UTC 2016-12-19 10:10:03Tagged date : UTC 2016-12-20 04:06:39
<a href="tracker.php?rid=39840292" class="postLink"> </a>

Трекер:  [ 20-Дек-2016 10:30 ]

  

Скачать .torrent

Размер .torrent файла 14 KB


Размер: 1.42 GB
Хэш (hash) релиза: 1406004c9e63e5409b443e07d60a1e7d99434a84

Еще никто не оставлял запись к записи скачать торрент [VIDEO] Не дыши Dont Breathe . Будь первым!

!Обратная связь