Once Upon a Time | Eric Larsen | Young Dracula

Скачать через торрент [VIDEO] Освобождение. Фильм пятый. Последний штурм бесплатно русская версия torrent активатор

Статистика раздачи
Размер:  1.61 GB   |    Зарегистрирован:  1 год 6 месяцев   |    .torrent скачан:  54 раза   |   
Раздают:  1  
   
загрузка...
 
Автор Сообщение

Galfimbul

avatar Galfimbul



<span class="post-font-serif1">Освобождение. Фильм пятый. Последний штурм</span>
<span class="post-font-serif1">Год выпуска: 1971
Страна: СССР, Германия (ГДР), Польша, Италия
Студия: Авала-фильм, Киностудия Дефа, Dino de Laurentiis Cinematografica, Мосфильм, ТО «Старт»
Жанр: драма, мелодрама, военный
Продолжительность: 01:13:37
Перевод: Не требуется
Cубтитры: русские, английские

Режиссер: Юрий Озеров
Сценарий: Юрий Бондарев, Оскар Курганов, Юрий Озеров
Оператор: Игорь Слабневич
Композитор: Юрий Левитин
Художник: Александр Мягков, Диляра Озерова
Монтаж: Екатерина Карпова

В ролях: Николай Олялин, Лариса Голубкина, Борис Зайденберг, Сергей Никоненко, Михаил Ульянов, Владлен Давыдов, Василий Шукшин, Евгений Буренков, Дмитрий Франько, Юрий Каморный, Бухути Закариадзе, Михаил Ножкин, Иван Переверзев, Владислав Стржельчик, Анатолий Ромашин, Николай Рыбников, Валерий Носик, Владимир Коренев, Эдуард Изотов, Юрий Легков, Всеволод Санаев, Владимир Самойлов, Игорь Озеров, Сергей Харченко, Николай Рушковский, Константин Забелин, Виктор Авдюшко, Владимир Заманский, Клеон Протасов, Александр Афанасьев, Алексей Глазырин, Пётр Глебов, Григорий Михайлов, Пётр Щербаков, Роман Ткачук, Сергей Ляхницкий, Валерий Карен, Виктор Байков, Николай Боголюбов, Владимир Герасимов, Михаил Глузский, Николай Ерёменко (старший), Петр Любешкин, Иван Миколайчук, Лев Прыгунов, Роман Хомятов, Волдемар Акуратерс, Алексей Алексеев, Вадим Грачёв, Юлия Диоши, Юрий Мартынов, Юрий Померанцев, Михаил Постников, Алексей Преснецов, Олев Эскола, Анатолий Кузнецов, Николай Лебедев (II), Лев Поляков, Александр Смирнов, Александр Барушной, Виктор Борцов, Елизавета Алексеева (II), Леонид Довлатов, Николай Симкин, Юрий Дуров, Виктор Шахов, Иосиф (Сосо) Гогичайшвили, В. Вахлин, Владимир Разумовский, Фриц Диц

Описание: Фильм пятый — «Последний штурм». Последние дни войны, штурм рейхстага, сражение за каждый метр, за каждый этаж — и, наконец, водружение Знамени Победы над рейхстагом. Раздались первые залпы Победы. Главные герои фильма встречаются у входа в рейхстаг.

Качество: BDRip | <span class="post-font-serif1">Освобождение / Befreiung / Liberation (1969-1971) {3-Disc Remastered Edition} Blu-ray [Custom] 1080p AVC DD2.0 HDCLUB
Формат: MP4

Видео: AVC (x264), 1280x544 (2.35:1), ~2960 kbps, 24.000 fps, 0.177 bpp
Аудио: Русский, AСC, 48 KHz, 2 ch, 160 kbps

[b]Релиз:

</span></a></span></span></span>
[spoiler="x264 [info]"]
crop(0, 132, -0, -131)
raw [info]: 1280x544p 1:1 @ 24/1 fps (cfr)
x264 [info]: using SAR=1/1
x264 [info]: profile High, level 4.1
x264 [info]: frame I:503 Avg QP:18.72 size: 61796
x264 [info]: frame P:20696 Avg QP:21.51 size: 28083
x264 [info]: frame B:84826 Avg QP:23.34 size: 12056
x264 [info]: consecutive B-frames: 0.8% 1.3% 5.9% 19.7% 13.3% 40.5% 6.3% 4.0% 3.6% 1.3% 1.0% 2.3%
x264 [info]: mb I I16..4: 1.7% 89.0% 9.3%
x264 [info]: mb P I16..4: 0.4% 11.6% 0.9% P16..4: 37.9% 39.1% 8.8% 0.0% 0.0% skip: 1.3%
x264 [info]: mb B I16..4: 0.0% 1.3% 0.1% B16..8: 42.0% 18.7% 2.5% direct: 7.5% skip:27.9% L0:46.6% L1:45.2% BI: 8.2%
x264 [info]: 8x8 transform intra:90.2% inter:70.0%
x264 [info]: direct mvs spatial:99.5% temporal:0.5%
x264 [info]: coded y,uvDC,uvAC intra: 91.0% 41.0% 13.2% inter: 34.5% 20.1% 0.2%
x264 [info]: i16 v,h,dc,p: 22% 19% 6% 53%
x264 [info]: i8 v,h,dc,ddl,ddr,vr,hd,vl,hu: 6% 7% 4% 10% 16% 13% 17% 11% 16%
x264 [info]: i4 v,h,dc,ddl,ddr,vr,hd,vl,hu: 6% 8% 2% 8% 16% 14% 18% 10% 17%
x264 [info]: i8c dc,h,v,p: 49% 28% 13% 9%
x264 [info]: ref P L0: 48.2% 19.3% 11.1% 7.0% 5.1% 5.0% 4.2% 0.0%
x264 [info]: ref B L0: 71.4% 11.9% 7.2% 4.1% 2.9% 1.8% 0.7%
x264 [info]: ref B L1: 94.1% 5.9%
x264 [info]: kb/s:2960.66
<pre>
ОбщееУникальный идентификатор : 222646257839363541447922577421875689496 (0xA7801C080D3C12FE94D445F5976E3818)Полное имя : ...\[email protected]Формат : MatroskaВерсия формата : Version 4 / Version 2Размер файла : 1,61 ГбайтПродолжительность : 1 ч. 13 м.Общий поток : 3124 Кбит/секНазвание фильма : Освобождение. Последний штурм \ 1971 [email protected]=-Дата кодирования : UTC 2016-12-15 19:03:06Программа кодирования : mkvmerge v9.6.0 ('Slave To Your Mind') 32bitБиблиотека кодирования : libebml v1.3.4 + libmatroska v1.4.5Attachments : 500.jpg

ВидеоИдентификатор : 1Формат : AVCФормат/Информация : Advanced Video CodecПрофиль формата : [email protected]Параметр CABAC формата : ДаПараметр ReFrames формата : 8 кадровИдентификатор кодека : V_MPEG4/ISO/AVCПродолжительность : 1 ч. 13 м.Битрейт : 2960 Кбит/секШирина : 1280 пикселейВысота : 544 пикселяСоотношение сторон : 2,35:1Режим частоты кадров : ПостоянныйЧастота кадров : 24,000 кадра/секЦветовое пространство : YUVСубдискретизация насыщенности : 4:2:0Битовая глубина : 8 битТип развёртки : ПрогрессивнаяБит/(Пиксели*Кадры) : 0.177Размер потока : 1,52 Гбайт (95%)Заголовок : Rip by nnlabetikБиблиотека кодирования : x264 core 148 r2744 b97ae06Настройки программы : cabac=1 / ref=8 / deblock=1:-2:-1 / analyse=0x3:0x113 / me=umh / subme=11 / psy=1 / psy_rd=1.00:0.00 / mixed_ref=1 / me_range=32 / chroma_me=1 / trellis=2 / 8x8dct=1 / cqm=0 / deadzone=21,11 / fast_pskip=0 / chroma_qp_offset=-2 / threads=4 / lookahead_threads=1 / sliced_threads=0 / nr=0 / decimate=1 / interlaced=0 / bluray_compat=0 / constrained_intra=0 / bframes=11 / b_pyramid=2 / b_adapt=2 / b_bias=0 / direct=3 / weightb=1 / open_gop=0 / weightp=0 / keyint=240 / keyint_min=23 / scenecut=40 / intra_refresh=0 / rc_lookahead=50 / rc=2pass / mbtree=0 / bitrate=2960 / ratetol=1.0 / qcomp=0.60 / qpmin=0 / qpmax=69 / qpstep=4 / cplxblur=20.0 / qblur=0.5 / vbv_maxrate=50000 / vbv_bufsize=62500 / nal_hrd=none / filler=0 / ip_ratio=1.40 / pb_ratio=1.30 / aq=1:1.00Язык : RussianDefault : ДаForced : НетЦветовой диапазон : LimitedОсновные цвета : BT.709Характеристики трансфера : BT.709Коэффициенты матрицы : BT.709

АудиоИдентификатор : 2Формат : AACФормат/Информация : Advanced Audio CodecПрофиль формата : LCИдентификатор кодека : A_AACПродолжительность : 1 ч. 13 м.Битрейт : 161 Кбит/секКаналы : 2 каналаРасположение каналов : Front: L RЧастота : 48,0 КГцЧастота кадров : 46,875 кадров/сек (1024 spf)Метод сжатия : С потерямиРазмер потока : 84,5 Мбайт (5%)Язык : RussianDefault : ДаForced : Нет

Текст #1Идентификатор : 3Формат : UTF-8Идентификатор кодека : S_TEXT/UTF8Идентификатор кодека/Информация : UTF-8 Plain TextПродолжительность : 1 ч. 9 м.Битрейт : 44 бит/секCount of elements : 436Размер потока : 22,7 Кбайт (0%)Язык : RussianDefault : НетForced : Нет

Текст #2Идентификатор : 4Формат : UTF-8Идентификатор кодека : S_TEXT/UTF8Идентификатор кодека/Информация : UTF-8 Plain TextПродолжительность : 1 ч. 13 м.Битрейт : 26 бит/секCount of elements : 452Размер потока : 14,5 Кбайт (0%)Язык : EnglishDefault : НетForced : Нет

Меню00:00:00.000 : :Chapter 0100:01:40.541 : :Chapter 0200:04:44.916 : :Chapter 0300:09:15.375 : :Chapter 0400:14:00.250 : :Chapter 0500:15:18.333 : :Chapter 0600:23:05.666 : :Chapter 0700:27:07.291 : :Chapter 0800:29:29.583 : :Chapter 0900:32:58.958 : :Chapter 1000:36:16.416 : :Chapter 1100:37:37.916 : :Chapter 1200:42:13.000 : :Chapter 1300:46:21.625 : :Chapter 1400:51:30.833 : :Chapter 1500:53:09.333 : :Chapter 1600:57:20.500 : :Chapter 1700:58:40.291 : :Chapter 1801:02:46.750 : :Chapter 1901:09:32.583 : :Chapter 2001:13:28.958 : :Chapter 21
</pre>[/spoiler]

Трекер:  [ 20-Дек-2016 09:30 ]

  

Скачать .torrent

Размер .torrent файла 16 KB


Размер: 1.61 GB
Хэш (hash) релиза: 09e651686f00611681a1d6f7fa052890503032c2

Еще никто не оставлял запись к записи скачать торрент [VIDEO] Освобождение. Фильм пятый. Последний штурм . Будь первым!

!Обратная связь