Voir la fiche | Policier | VA- - Best Dance Music 2016 Vol.2-CsM (2016) MP3 [320 kbps]

Скачать через торрент [MULT] Angry Birds в кино The Angry Birds Movie бесплатно русская версия torrent активатор

Статистика раздачи
Размер:  1.45 GB   |    Зарегистрирован:  1 год 8 месяцев   |    .torrent скачан:  47 раз   |   
Раздают:  1  
   
загрузка...
 
Автор Сообщение

Galfimbul

avatar Galfimbul


<span class="post-font-serif1">Angry Birds в кино / The Angry Birds Movie</span>

<span class="post-font-serif1">Год выпуска: 2016
Страна: США, Финляндия / Columbia Pictures, Rovio Animation
Жанр: мультфильм, боевик, комедия, семейный
Продолжительность: 01:37:13
Перевод №1: русский Профессиональный (полное дублирование) Blu-ray NORDiC
Перевод №2: украинский Профессиональный (полное дублирование) Blu-ray NORDiC
Оригинальная дорожка: Есть
Cубтитры: русские (Forced iTunes, iTunes), украинские (iTunes), английские (iTunes, Full)</span>
<span class="post-font-serif1">Режиссеры: Клэй Кэйтис / Clay Kaytis, Фергал Рейли / Fergal Reilly</span>
<span class="post-font-serif1">Роли озвучивали: Джейсон Судейкис, Джош Гад, Дэнни МакБрайд, Майя Рудольф, Билл Хейдер, Питер Динклэйдж, Шон Пенн, Кигэн-Майкл Ки, Кейт МакКиннон, Тони Хейл и другие .</span>
<span class="post-font-serif1">Роли дублировали: Александр Цекало, Тимур Родригез, Семён Слепаков, Елена Шульман, Сергей Бурунов, Александр Ревва, Никита Прозоровский, Наталия Колодяжная, Алёна Фалалеева, Рудольф Панков, Дмитрий Сыендук, Денис Некрасов, Константин Карасик, Григорий Перель, Анастасия Лапина, Дамиан Тикунов, Алексей Чёрных, Анна Киселёва, Аркадий Джем, Артём Маликов, Виктория Казанцева, Илья Колесников, Кирилл Туранский, Софья Ануфриева, Стася Кудякова, Татьяна Шилина, Георгий Клопов, Денис Ясик, Игорь Бондаренко, Ирина Маликова, Марк Попов, Юрий Сазонов и другие .</span>
<span class="post-font-serif1">Описание: Фильм расскажет о том, как началось знаменитое противостояние птичек и свинок, персонажей популярной компьютерной игры, а также раскроет некоторые секреты любимых героев.</span>
<span class="post-font-serif1">Релиз группы </span>
<span class="post-font-serif1">Начиная с 10 июня 2016 года, фильм начинается с короткометражки «Ранняя пташка червячка ловит». До тех пор фильм начинался с логотипа «Sony/Columbia Pictures», после чего шёл логотип «Rovio Animation», а затем начинался пролог к фильму.
Озвучивая Леонарда, Билл Хейдер пародировал голос тренера футбольной команды в школе, где он учился.
В отличие от своих прототипов в компьютерной игре, персонажи фильма имеют некое подобие рук.
С момента выхода на рынок 11 декабря 2009 года игру «Angry Birds» финской компании «Rovio» во всех её версиях и на всех платформах скачали свыше 3 миллиардов раз.
Бюджет «Angry Birds в кино» ($80 миллионов на производство и ещё $100 миллионов на рекламную кампанию) сделал этот фильм самым дорогим в истории финского кинематографа. Прежний рекорд — $9,7 миллиона — принадлежал боевику «Большая игра» (Ялмари Хеландер, 2014).
Как и участники комедийного дуэта «Smosh», получившего известность в Интернете, Тоби Тернер (актёр, комик, музыкант, видеоблоггер) озвучил одного из персонажей фильма (Перри). По причинам, не известным широкой публике, этот персонаж из прокатной версии фильма был вырезан. Ходят слухи, что это стало реакцией на выдвинутые против Тернера за месяц до премьеры обвинения в сексуальных домогательствах и злоупотреблении алкоголем и наркотиками.
Дебютный фильм режиссёров анимации Клэя Кэйтиса и Фергала Рейлли.
Мировая премьера фильма была назначена на 1 июля 2016 года, но в декабре 2014 её перенесли на май 2016 года.
В карьере актрисы Каллан Холли это первый полнометражный анимационный фильм и второй фильм с применением компьютерной графики.
В голландской версии фильма Чака дублирует Энцо Кнол, первый в своей стране видеоблоггер, собравший на «YouTube» миллион подписчиков.
Для испанской версии Реда дублирует Сантьяго Сегура, Чака — Хосе Мота, Матильду — Кристина Кастаньо, а Леонардо — режиссёр Алекс де ла Иглесиа.
В Испании фильм демонстрировался в 364 кинотеатрах (общее количество экранов — 584) в дублированной версии или с субтитрами. Фильм также вышел в 3D формате.
В начале фильма Ред спрашивает двух птиц, сколько звёзд из трёх возможных они бы присудили праздничному пирогу. Три звезды — максимальный уровень, который пользователь может набрать в компьютерных играх «Angry Birds».
Персонаж по имени Теренс не произносит за весь фильм ни слова. Он только кряхтит, что-то напевает себе под нос и поёт арии из опер — и всё это голосом актёра Шона Пенна.
У свиней имеется собственная версия «Daft Punk» (французский электронный дуэт), Группу «Daft Pig» можно увидеть за пультом на дискотеке на острове птиц. Её участники выступают в таких же шлемах, что и «Daft Punk», только для свиных голов.
В компьютерной игре орёл прилетает, когда пользователь бросает огромное золотое яйцо. В фильме он прилетает, когда украдены все яйца. Все они связаны друг с другом, так что выглядит это как одно большое яйцо.
Во время титров в начале фильма состояние Реда и его жизненные неприятности описаны в идущей фоном композиции «Paranoid» (1970) британской рок-группы Black Sabbath. Припев ("Ты можешь мне помочь чем-то занять свои мысли?») в фильме не используется. Ред действительно обращается к другим птицам за помощью.
Розовая птица Стелла — единственная, кто не пользуется своими особыми способностями при нападении на Свиной остров.
В одной из сцен во время разрушения Свинограда Бомб говорит в адрес Матильды: «Подружка невесты!» Бомба в фильме озвучил Дэнни МаБрайд ("bride» по-английски «невеста»).
На номерном знаке машины, которую угоняет Теренс, написано «Дикий, как кабан».
Надпись на билетах на концерт свиней на Птичьем острове гласит «Стив Аойнки». Это намёк на диджея, композитора и музыкального продюсера Стива Аоки.</span>

<span class="post-font-serif1">Качество: HDRip / рип с BDRip 720p
Формат: MP4
Видео кодек: H.264
Аудио кодек: AAC
Видео: 960x518 AR:1.85 1728 kbps 23.976 fps
Аудио №1: [Russian] 2ch 48 kHz 128 kbps - [Dub] Профессиональный (полное дублирование) Blu-ray NORDiC
Аудио №2: [Ukrainian] 2ch 48 kHz 128 kbps - [Dub] Профессиональный (полное дублирование) Blu-ray NORDiC
Аудио №3: [English] 2ch 48 kHz 128 kbps - Оригинал (Английский)</span>
avs [info]: 960x518p 1:1 @ 2997/125 fps (cfr)
x264 [info]: using SAR=1/1
x264 [info]: using cpu capabilities: MMX2 SSE2Fast SSSE3 SSE4.2 AVX FMA3 AVX2 LZCNT BMI2
x264 [info]: profile High, level 4.1

x264 [info]: frame I:1522 Avg QP:19.97 size: 74754
x264 [info]: frame P:42355 Avg QP:23.69 size: 15309
x264 [info]: frame B:95995 Avg QP:25.33 size: 5183
x264 [info]: consecutive B-frames: 6.9% 7.1% 11.5% 55.2% 6.8% 9.1% 0.9% 2.3% 0.2%
x264 [info]: mb I I16..4: 3.1% 71.9% 24.9%
x264 [info]: mb P I16..4: 1.6% 11.0% 2.4% P16..4: 29.4% 28.9% 8.7% 0.0% 0.0% skip:18.1%
x264 [info]: mb B I16..4: 0.2% 1.6% 0.3% B16..8: 29.1% 14.4% 2.7% direct: 3.0% skip:48.8% L0:41.0% L1:48.2% BI:10.8%
x264 [info]: 8x8 transform intra:73.4% inter:61.8%
x264 [info]: direct mvs spatial:91.4% temporal:8.6%
x264 [info]: coded y,uvDC,uvAC intra: 80.5% 82.1% 51.0% inter: 15.7% 14.9% 6.1%
x264 [info]: i16 v,h,dc,p: 8% 22% 2% 68%
x264 [info]: i8 v,h,dc,ddl,ddr,vr,hd,vl,hu: 8% 7% 3% 10% 15% 14% 16% 12% 15%
x264 [info]: i4 v,h,dc,ddl,ddr,vr,hd,vl,hu: 9% 10% 3% 9% 15% 13% 16% 10% 15%
x264 [info]: i8c dc,h,v,p: 30% 30% 16% 24%
x264 [info]: Weighted P-Frames: Y:7.5% UV:5.4%
x264 [info]: ref P L0: 57.1% 12.4% 12.7% 5.4% 3.6% 3.1% 3.4% 2.1% 0.3% 0.0%
x264 [info]: ref B L0: 79.7% 7.9% 4.4% 3.9% 1.8% 1.1% 1.2%
x264 [info]: ref B L1: 95.1% 4.9%
x264 [info]: kb/s:1727.46

encoded 139872 frames, 15.15 fps, 1727.46 kb/s
GeneralComplete name : D:\Torrents\Angry Birds.2016.HDRip.x264.960x.rip by Frost O.S.mp4Format : MPEG-4Format profile : Base MediaCodec ID : isom (isom/avc1/iso2)File size : 1.45 GiBDuration : 1 h 37 minOverall bit rate mode : VariableOverall bit rate : 2 128 kb/sMovie name : Angry Birds 2016 HDRip x264 960x rip by Frost O SGenre : AnimationContentType : Short FilmEncoded date : UTC 2016-12-18 06:13:17Tagged date : UTC 2016-12-18 06:14:39Writing application : MkvToMp4 version: 0.224 (x64)Cover : YesComment : rip by Frost O.S

VideoID : 1Format : AVCFormat/Info : Advanced Video CodecFormat profile : [email protected] settings, CABAC : YesFormat settings, ReFrames : 8 framesCodec ID : avc1Codec ID/Info : Advanced Video CodingDuration : 1 h 37 minBit rate : 1 728 kb/sMaximum bit rate : 6 677 kb/sWidth : 960 pixelsHeight : 518 pixelsDisplay aspect ratio : 1.85:1Frame rate mode : ConstantFrame rate : 23.976 (24000/1001) FPSOriginal frame rate : 23.976 (23976/1000) FPSColor space : YUVChroma subsampling : 4:2:0Bit depth : 8 bitsScan type : ProgressiveBits/(Pixel*Frame) : 0.145Stream size : 1.17 GiB (81%)Writing library : x264 core 148 r2705 3f5ed56Encoding settings : cabac=1 / ref=8 / deblock=1:-1:-1 / analyse=0x3:0x113 / me=umh / subme=11 / psy=1 / psy_rd=1.20:0.00 / mixed_ref=1 / me_range=32 / chroma_me=1 / trellis=2 / 8x8dct=1 / cqm=0 / deadzone=21,11 / fast_pskip=0 / chroma_qp_offset=-2 / threads=6 / lookahead_threads=1 / sliced_threads=0 / nr=0 / decimate=0 / interlaced=0 / bluray_compat=0 / constrained_intra=0 / bframes=8 / b_pyramid=2 / b_adapt=2 / b_bias=0 / direct=3 / weightb=1 / open_gop=0 / weightp=2 / keyint=250 / keyint_min=23 / scenecut=40 / intra_refresh=0 / rc=2pass / mbtree=0 / bitrate=1728 / ratetol=1.0 / qcomp=0.60 / qpmin=0 / qpmax=69 / qpstep=4 / cplxblur=20.0 / qblur=0.5 / ip_ratio=1.40 / pb_ratio=1.25 / aq=1:1.10Language : EnglishEncoded date : UTC 2016-12-18 06:13:17Tagged date : UTC 2016-12-18 06:13:41Color range : LimitedColor primaries : BT.709Transfer characteristics : BT.709Matrix coefficients : BT.709

Audio #1ID : 2Format : AACFormat/Info : Advanced Audio CodecFormat profile : LCCodec ID : 40Duration : 1 h 37 minBit rate mode : VariableBit rate : 128 kb/sMaximum bit rate : 135 kb/sChannel(s) : 2 channelsChannel positions : Front: L RSampling rate : 48.0 kHzFrame rate : 46.875 FPS (1024 spf)Compression mode : LossyStream size : 89.0 MiB (6%)Title : DUB_ Blu_ray NORDiC / DUB_ Blu_ray NORDiCLanguage : RussianDefault : YesAlternate group : 1Encoded date : UTC 2016-12-18 06:13:36Tagged date : UTC 2016-12-18 06:13:41

Audio #2ID : 3Format : AACFormat/Info : Advanced Audio CodecFormat profile : LCCodec ID : 40Duration : 1 h 37 minBit rate mode : VariableBit rate : 128 kb/sMaximum bit rate : 135 kb/sChannel(s) : 2 channelsChannel positions : Front: L RSampling rate : 48.0 kHzFrame rate : 46.875 FPS (1024 spf)Compression mode : LossyStream size : 89.0 MiB (6%)Title : DUB_ Blu_ray NORDiC / DUB_ Blu_ray NORDiCLanguage : UkrainianDefault : NoAlternate group : 1Encoded date : UTC 2016-12-18 06:13:37Tagged date : UTC 2016-12-18 06:13:41

Audio #3ID : 4Format : AACFormat/Info : Advanced Audio CodecFormat profile : LCCodec ID : 40Duration : 1 h 37 minBit rate mode : VariableBit rate : 128 kb/sMaximum bit rate : 135 kb/sChannel(s) : 2 channelsChannel positions : Front: L RSampling rate : 48.0 kHzFrame rate : 46.875 FPS (1024 spf)Compression mode : LossyStream size : 89.0 MiB (6%)Title : Original / OriginalLanguage : EnglishDefault : NoAlternate group : 1Encoded date : UTC 2016-12-18 06:13:39Tagged date : UTC 2016-12-18 06:13:41

Text #1ID : 5Format : Timed TextMuxing mode : sbtlCodec ID : tx3gDuration : 1 h 28 minBit rate mode : VariableBit rate : 3 b/sStream size : 1.91 KiB (0%)Title : Forced_ iTunes / Forced_ iTunesLanguage : RussianDefault : YesForced : NoAlternate group : 2Encoded date : UTC 2016-12-18 06:13:41Tagged date : UTC 2016-12-18 06:13:41

Text #2ID : 6Format : Timed TextMuxing mode : sbtlCodec ID : tx3gDuration : 1 h 30 minBit rate mode : VariableBit rate : 107 b/sStream size : 70.6 KiB (0%)Title : iTunes / iTunesLanguage : RussianDefault : NoForced : NoAlternate group : 2Encoded date : UTC 2016-12-18 06:13:41Tagged date : UTC 2016-12-18 06:13:41

Text #3ID : 7Format : Timed TextMuxing mode : sbtlCodec ID : tx3gDuration : 1 h 30 minBit rate mode : VariableBit rate : 105 b/sStream size : 69.7 KiB (0%)Title : iTunes / iTunesLanguage : UkrainianDefault : NoForced : NoAlternate group : 2Encoded date : UTC 2016-12-18 06:13:41Tagged date : UTC 2016-12-18 06:13:41

Text #4ID : 8Format : Timed TextMuxing mode : sbtlCodec ID : tx3gDuration : 1 h 30 minBit rate mode : VariableBit rate : 72 b/sStream size : 47.5 KiB (0%)Title : iTunes / iTunesLanguage : EnglishDefault : NoForced : NoAlternate group : 2Encoded date : UTC 2016-12-18 06:13:41Tagged date : UTC 2016-12-18 06:13:41

Text #5ID : 9Format : Timed TextMuxing mode : sbtlCodec ID : tx3gDuration : 1 h 33 minBit rate mode : VariableBit rate : 85 b/sStream size : 58.1 KiB (0%)Title : Full / FullLanguage : EnglishDefault : NoForced : NoAlternate group : 2Encoded date : UTC 2016-12-18 06:13:41Tagged date : UTC 2016-12-18 06:13:41

Text #6ID : 10Format : Timed TextMuxing mode : sbtlCodec ID : tx3gDuration : 1 h 33 minBit rate mode : VariableBit rate : 105 b/sStream size : 72.3 KiB (0%)Title : SDH / SDHLanguage : EnglishDefault : NoForced : NoAlternate group : 2Encoded date : UTC 2016-12-18 06:13:41Tagged date : UTC 2016-12-18 06:13:41


Трекер:  [ 18-Дек-2016 13:00 ]

  

Скачать .torrent

Размер .torrent файла 15 KB


Размер: 1.45 GB
Хэш (hash) релиза: 399beb0571b8aadaaff91a1a514a915949f72191

Еще никто не оставлял запись к записи скачать торрент [MULT] Angry Birds в кино The Angry Birds Movie . Будь первым!

!Обратная связь