Temporada 8 | Queen.Sugar.S03E12.The.Horizon.Leans.Forward.WEBRip.x264-CRiMSON[... | Наш дом (2018)

Скачать через торрент [VIDEO] Эдди «Орел» Eddie the Eagle бесплатно русская версия torrent активатор

Статистика раздачи
Размер:  1.03 GB   |    Зарегистрирован:  1 год 8 месяцев   |    .torrent скачан:  363 раза   |   
Раздают:  1  
   
загрузка...
 
Автор Сообщение

Galfimbul

avatar Galfimbul


<span class="post-font-serif1">Эдди «Орел» / Eddie the Eagle</span>

<span class="post-font-serif1">Год выпуска: 2016
Страна: Великобритания, США, Германия
Жанр: драма, комедия, биография, спорт
Продолжительность: 01:45:43
Перевод №1: русский Профессиональный (полное дублирование) Blu-ray CEE
Перевод №2: украинский Профессиональный (полное дублирование) Blu-ray CEE
Оригинальная дорожка: Есть
Cубтитры: русские (Forced, iTunes), украинские (Forced, iTunes), английские (Forced, iTunes)</span>
<span class="post-font-serif1">Режиссер: Декстер Флетчер / Dexter Fletcher</span>
<span class="post-font-serif1">В ролях: Тэрон Эджертон, Хью Джекман, Кристофер Уокен, Джо Хартли, Том Костелло, Кит Аллен, Дикон Толсон, Джек Костелло, Марк Бентон, Тим МакИннерни и другие .</span>
<span class="post-font-serif1">Описание: Фильм повествует о трамплинисте Эдди, по прозвищу «Орел». Он прославился благодаря своим неудачам, ибо на всех соревнованиях он занимал последние места.</span>
<span class="post-font-serif1">Релиз группы </span>
<span class="post-font-serif1">Тэрон Эджертон позже признался, что его поразили физические данные Хью Джекмана. «У Хью потрясающие бицепсы. Вы его руки видели? Они такие здоровенные», — сказал Эджертон. В фильме Джекман сыграл его тренера.
Съёмки начались 9 марта 2015 года.
Нильс Веттори, сын олимпийского чемпиона по прыжкам с трамплина 1992 года Эрнста Веттори (он выступал за Австрию), снялся в эпизодической роли. Он тоже сыграл прыгуна на лыжах с трамплина.
В интервью «Би-Би-Си» 6 июня 2015 года сам знаменитый трамплинист Эдди «Орёл» Эдвардс заявил, что сюжет фильма будет на 90% выдуман. «Меня предупредили, что всего 10-15% фильма будет основано на реальных событиях моей жизни».</span>

<span class="post-font-serif1">Качество: HDRip / рип с BDRip 1080p
Формат: MP4
Видео кодек: H.264
Аудио кодек: AAC
Видео: 960x402 AR:2.40 1000 kbps 23.976 fps
Аудио №1: [Russian] 2ch 48 kHz 128 kbps - [Dub] Профессиональный (полное дублирование) Blu-ray CEE
Аудио №2: [Ukrainian] 2ch 48 kHz 128 kbps - [Dub] Профессиональный (полное дублирование) Blu-ray CEE
Аудио №3: [English] 2ch 48 kHz 128 kbps - Оригинал (Английский)</span>
avs [info]: 960x402p 1:1 @ 2997/125 fps (cfr)
x264 [info]: using SAR=1/1
x264 [info]: using cpu capabilities: MMX2 SSE2Fast SSSE3 SSE4.2 AVX FMA3 AVX2 LZCNT BMI2
x264 [info]: profile High, level 4.1

x264 [info]: frame I:1266 Avg QP:17.54 size: 53406
x264 [info]: frame P:35750 Avg QP:22.03 size: 11110
x264 [info]: frame B:115073 Avg QP:23.67 size: 2848
x264 [info]: consecutive B-frames: 3.2% 3.7% 8.8% 25.0% 19.5% 29.4% 4.8% 3.2% 0.8% 0.8% 0.8%
x264 [info]: mb I I16..4: 7.3% 64.7% 27.9%
x264 [info]: mb P I16..4: 0.7% 4.7% 1.5% P16..4: 35.9% 35.8% 10.5% 0.0% 0.0% skip:10.9%
x264 [info]: mb B I16..4: 0.1% 0.5% 0.2% B16..8: 31.8% 14.0% 1.9% direct: 2.3% skip:49.2% L0:41.0% L1:47.4% BI:11.6%
x264 [info]: 8x8 transform intra:66.7% inter:58.1%
x264 [info]: direct mvs spatial:95.8% temporal:4.2%
x264 [info]: coded y,uvDC,uvAC intra: 77.1% 80.5% 55.8% inter: 10.9% 10.8% 5.9%
x264 [info]: i16 v,h,dc,p: 30% 15% 4% 51%
x264 [info]: i8 v,h,dc,ddl,ddr,vr,hd,vl,hu: 19% 8% 6% 8% 12% 12% 13% 11% 12%
x264 [info]: i4 v,h,dc,ddl,ddr,vr,hd,vl,hu: 30% 8% 5% 7% 11% 11% 11% 8% 10%
x264 [info]: i8c dc,h,v,p: 31% 29% 26% 15%
x264 [info]: Weighted P-Frames: Y:3.6% UV:1.6%
x264 [info]: ref P L0: 54.9% 12.0% 14.0% 5.8% 4.0% 3.4% 2.7% 1.6% 1.5% 0.1% 0.0%
x264 [info]: ref B L0: 78.1% 9.8% 5.1% 2.4% 1.9% 1.4% 1.1% 0.3%
x264 [info]: ref B L1: 94.5% 5.5%
x264 [info]: kb/s:999.50

encoded 152089 frames, 17.76 fps, 999.51 kb/s
GeneralComplete name : D:\Torrents\Eddie the Eagle.2016.HDRip.x264.960x.rip by Frost O.S.mp4Format : MPEG-4Format profile : Base MediaCodec ID : isom (isom/avc1/iso2)File size : 1.03 GiBDuration : 1 h 45 minOverall bit rate mode : VariableOverall bit rate : 1 399 kb/sMovie name : Eddie the Eagle 2016 HDRip x264 960x rip by Frost O SContentType : Short FilmEncoded date : UTC 2016-12-17 22:01:24Tagged date : UTC 2016-12-17 22:02:25Writing application : MkvToMp4 version: 0.224 (x64)Cover : YesComment : rip by Frost O.S

VideoID : 1Format : AVCFormat/Info : Advanced Video CodecFormat profile : [email protected] settings, CABAC : YesFormat settings, ReFrames : 9 framesCodec ID : avc1Codec ID/Info : Advanced Video CodingDuration : 1 h 45 minBit rate : 1 000 kb/sMaximum bit rate : 4 386 kb/sWidth : 960 pixelsHeight : 402 pixelsDisplay aspect ratio : 2.40:1Frame rate mode : ConstantFrame rate : 23.976 (24000/1001) FPSOriginal frame rate : 23.976 (23976/1000) FPSColor space : YUVChroma subsampling : 4:2:0Bit depth : 8 bitsScan type : ProgressiveBits/(Pixel*Frame) : 0.108Stream size : 756 MiB (71%)Writing library : x264 core 148 r2705 3f5ed56Encoding settings : cabac=1 / ref=9 / deblock=1:-1:-1 / analyse=0x3:0x113 / me=umh / subme=11 / psy=1 / psy_rd=1.10:0.05 / mixed_ref=1 / me_range=32 / chroma_me=1 / trellis=2 / 8x8dct=1 / cqm=0 / deadzone=21,11 / fast_pskip=0 / chroma_qp_offset=-3 / threads=6 / lookahead_threads=1 / sliced_threads=0 / nr=0 / decimate=0 / interlaced=0 / bluray_compat=0 / constrained_intra=0 / bframes=10 / b_pyramid=2 / b_adapt=2 / b_bias=0 / direct=3 / weightb=1 / open_gop=0 / weightp=2 / keyint=250 / keyint_min=23 / scenecut=40 / intra_refresh=0 / rc=2pass / mbtree=0 / bitrate=1000 / ratetol=1.0 / qcomp=0.60 / qpmin=0 / qpmax=69 / qpstep=4 / cplxblur=20.0 / qblur=0.5 / ip_ratio=1.40 / pb_ratio=1.30 / aq=1:0.90Language : EnglishEncoded date : UTC 2016-12-17 22:01:24Tagged date : UTC 2016-12-17 22:01:40Color range : LimitedColor primaries : BT.709Transfer characteristics : BT.709Matrix coefficients : BT.709

Audio #1ID : 2Format : AACFormat/Info : Advanced Audio CodecFormat profile : LCCodec ID : 40Duration : 1 h 45 minBit rate mode : VariableBit rate : 128 kb/sMaximum bit rate : 135 kb/sChannel(s) : 2 channelsChannel positions : Front: L RSampling rate : 48.0 kHzFrame rate : 46.875 FPS (1024 spf)Compression mode : LossyStream size : 96.8 MiB (9%)Title : DUB_ Blu_ray CEE / DUB_ Blu_ray CEELanguage : RussianDefault : YesAlternate group : 1Encoded date : UTC 2016-12-17 22:01:35Tagged date : UTC 2016-12-17 22:01:40

Audio #2ID : 3Format : AACFormat/Info : Advanced Audio CodecFormat profile : LCCodec ID : 40Duration : 1 h 45 minBit rate mode : VariableBit rate : 128 kb/sMaximum bit rate : 135 kb/sChannel(s) : 2 channelsChannel positions : Front: L RSampling rate : 48.0 kHzFrame rate : 46.875 FPS (1024 spf)Compression mode : LossyStream size : 96.8 MiB (9%)Title : DUB_ Blu_ray CEE / DUB_ Blu_ray CEELanguage : UkrainianDefault : NoAlternate group : 1Encoded date : UTC 2016-12-17 22:01:37Tagged date : UTC 2016-12-17 22:01:40

Audio #3ID : 4Format : AACFormat/Info : Advanced Audio CodecFormat profile : LCCodec ID : 40Duration : 1 h 45 minBit rate mode : VariableBit rate : 128 kb/sMaximum bit rate : 135 kb/sChannel(s) : 2 channelsChannel positions : Front: L RSampling rate : 48.0 kHzFrame rate : 46.875 FPS (1024 spf)Compression mode : LossyStream size : 96.8 MiB (9%)Title : [Original] / [Original]Language : EnglishDefault : NoAlternate group : 1Encoded date : UTC 2016-12-17 22:01:38Tagged date : UTC 2016-12-17 22:01:40

Text #1ID : 5Format : Timed TextMuxing mode : sbtlCodec ID : tx3gDuration : 1 h 45 minBit rate mode : VariableBit rate : 2 b/sStream size : 1.64 KiB (0%)Title : Forced_ iTunes / Forced_ iTunesLanguage : RussianDefault : YesForced : NoAlternate group : 2Encoded date : UTC 2016-12-17 22:01:40Tagged date : UTC 2016-12-17 22:01:40

Text #2ID : 6Format : Timed TextMuxing mode : sbtlCodec ID : tx3gDuration : 1 h 45 minBit rate mode : VariableBit rate : 89 b/sStream size : 69.1 KiB (0%)Title : iTunes / iTunesLanguage : RussianDefault : NoForced : NoAlternate group : 2Encoded date : UTC 2016-12-17 22:01:40Tagged date : UTC 2016-12-17 22:01:40

Text #3ID : 7Format : Timed TextMuxing mode : sbtlCodec ID : tx3gDuration : 1 h 45 minBit rate mode : VariableBit rate : 0 b/sStream size : 274 Bytes (0%)Title : Forced_ iTunes / Forced_ iTunesLanguage : UkrainianDefault : NoForced : NoAlternate group : 2Encoded date : UTC 2016-12-17 22:01:40Tagged date : UTC 2016-12-17 22:01:40

Text #4ID : 8Format : Timed TextMuxing mode : sbtlCodec ID : tx3gDuration : 1 h 45 minBit rate mode : VariableBit rate : 93 b/sStream size : 71.7 KiB (0%)Title : iTunes / iTunesLanguage : UkrainianDefault : NoForced : NoAlternate group : 2Encoded date : UTC 2016-12-17 22:01:40Tagged date : UTC 2016-12-17 22:01:40

Text #5ID : 9Format : Timed TextMuxing mode : sbtlCodec ID : tx3gDuration : 47 min 55 sBit rate mode : VariableBit rate : 0 b/sStream size : 120 Bytes (0%)Title : Forced_ iTunes / Forced_ iTunesLanguage : EnglishDefault : NoForced : NoAlternate group : 2Encoded date : UTC 2016-12-17 22:01:40Tagged date : UTC 2016-12-17 22:01:40

Text #6ID : 10Format : Timed TextMuxing mode : sbtlCodec ID : tx3gDuration : 1 h 40 minBit rate mode : VariableBit rate : 60 b/sStream size : 44.4 KiB (0%)Title : iTunes / iTunesLanguage : EnglishDefault : NoForced : NoAlternate group : 2Encoded date : UTC 2016-12-17 22:01:40Tagged date : UTC 2016-12-17 22:01:40


Трекер:  [ 18-Дек-2016 12:00 ]

  

Скачать .torrent

Размер .torrent файла 10 KB


Размер: 1.03 GB
Хэш (hash) релиза: fa84301e954fc611508e8651bd0c3f2dc7dbadf1

Торренты, похожие на [VIDEO] Эдди «Орел» Eddie the Eagle скачать торрент

Форум Название Автор Размер S L Добавлен
Видео (Фильмы/Клипы) ·· [VIDEO] Эдди «Орел» / Eddie the Eagle (Декстер Флетчер / Dexter Fletcher) [2016, драма, комедия, биография, спорт, HDRip] [MP4, 480x] Dub Galfimbul 450074372429 MB 0 0 1482055557

13:05

18-Дек-16

Еще никто не оставлял запись к записи скачать торрент [VIDEO] Эдди «Орел» Eddie the Eagle . Будь первым!

!Обратная связь