War Monthly Issue 40 | Alien Vs. Zombies | Советское кино (DVD)

Скачать через торрент [VIDEO] Эдди «Орел» Eddie the Eagle бесплатно русская версия torrent активатор

Статистика раздачи
Размер:  429 MB   |    Зарегистрирован:  1 год 7 месяцев   |    .torrent скачан:  329 раз   |   
Раздают:  1  
   
загрузка...
 
Автор Сообщение

Galfimbul

avatar Galfimbul


<span class="post-font-serif1">Эдди «Орел» / Eddie the Eagle</span>

<span class="post-font-serif1">Год выпуска: 2016
Страна: Великобритания, США, Германия
Жанр: драма, комедия, биография, спорт
Продолжительность: 01:45:43
Перевод: русский Профессиональный (полное дублирование) Blu-ray CEE
Cубтитры: нет</span>
<span class="post-font-serif1">Режиссер: Декстер Флетчер / Dexter Fletcher</span>
<span class="post-font-serif1">В ролях: Тэрон Эджертон, Хью Джекман, Кристофер Уокен, Джо Хартли, Том Костелло, Кит Аллен, Дикон Толсон, Джек Костелло, Марк Бентон, Тим МакИннерни и другие .</span>
<span class="post-font-serif1">Описание: Фильм повествует о трамплинисте Эдди, по прозвищу «Орел». Он прославился благодаря своим неудачам, ибо на всех соревнованиях он занимал последние места.</span>
<span class="post-font-serif1">Релиз группы </span>
<span class="post-font-serif1">Тэрон Эджертон позже признался, что его поразили физические данные Хью Джекмана. «У Хью потрясающие бицепсы. Вы его руки видели? Они такие здоровенные», — сказал Эджертон. В фильме Джекман сыграл его тренера.
Съёмки начались 9 марта 2015 года.
Нильс Веттори, сын олимпийского чемпиона по прыжкам с трамплина 1992 года Эрнста Веттори (он выступал за Австрию), снялся в эпизодической роли. Он тоже сыграл прыгуна на лыжах с трамплина.
В интервью «Би-Би-Си» 6 июня 2015 года сам знаменитый трамплинист Эдди «Орёл» Эдвардс заявил, что сюжет фильма будет на 90% выдуман. «Меня предупредили, что всего 10-15% фильма будет основано на реальных событиях моей жизни».</span>

<span class="post-font-serif1">Качество: HDRip / рип с BDRip 1080p
Формат: MP4
Видео кодек: XviD
Аудио кодек: AAC
Видео: 480x200 AR:2.40 432 kbps 23.976 fps
Аудио: [Russian] 2ch 48 kHz 128 kbps - [Dub] Профессиональный (полное дублирование) Blu-ray CEE</span>
GeneralComplete name : D:\Torrents\Eddie the Eagle.2016.HDRip.XviD.480x.rip by Frost O.S.mp4Format : MPEG-4Format profile : Base MediaCodec ID : isom (isom/iso2)File size : 429 MiBDuration : 1 h 45 minOverall bit rate mode : VariableOverall bit rate : 568 kb/sMovie name : Eddie the Eagle 2016 HDRip XviD 480x rip by Frost O SContentType : Short FilmEncoded date : UTC 2016-12-17 22:04:52Tagged date : UTC 2016-12-17 22:05:14Writing application : MkvToMp4 version: 0.224 (x64)Cover : YesComment : rip by Frost O.S

VideoID : 1Format : MPEG-4 VisualFormat profile : Advanced [email protected] settings, BVOP : YesFormat settings, QPel : NoFormat settings, GMC : No warppointsFormat settings, Matrix : CustomCodec ID : 20Duration : 1 h 45 minBit rate mode : VariableBit rate : 432 kb/sMaximum bit rate : 193 Mb/sWidth : 480 pixelsHeight : 200 pixelsDisplay aspect ratio : 2.40:1Frame rate mode : VariableFrame rate : 23.976 (23976/1000) FPSMinimum frame rate : 11.988 FPSMaximum frame rate : 23.976 FPSColor space : YUVChroma subsampling : 4:2:0Bit depth : 8 bitsScan type : ProgressiveCompression mode : LossyBits/(Pixel*Frame) : 0.188Stream size : 327 MiB (76%)Title : avi_GPAC0.5.2_DEV_rev248_g39d5978_masterWriting library : XviD 1.2.1 (UTC 2008-12-04)Language : EnglishTagged date : UTC 2016-12-17 22:05:01

AudioID : 2Format : AACFormat/Info : Advanced Audio CodecFormat profile : LCCodec ID : 40Duration : 1 h 45 minBit rate mode : VariableBit rate : 128 kb/sMaximum bit rate : 135 kb/sChannel(s) : 2 channelsChannel positions : Front: L RSampling rate : 48.0 kHzFrame rate : 46.875 FPS (1024 spf)Compression mode : LossyStream size : 96.8 MiB (23%)Title : DUB_ Blu_ray CEE / DUB_ Blu_ray CEELanguage : RussianDefault : YesAlternate group : 1Encoded date : UTC 2016-12-17 22:05:00Tagged date : UTC 2016-12-17 22:05:01


Трекер:  [ 18-Дек-2016 12:00 ]

  

Скачать .torrent

Размер .torrent файла 17 KB


Размер: 429 MB
Хэш (hash) релиза: 02f5968b17e7f7b4bdb2b8842fcf7c092a0d3724

Торренты, похожие на [VIDEO] Эдди «Орел» Eddie the Eagle скачать торрент

Форум Название Автор Размер S L Добавлен
Видео (Фильмы/Клипы) ·· [VIDEO] Эдди «Орел» / Eddie the Eagle (Декстер Флетчер / Dexter Fletcher) [2016, драма, комедия, биография, спорт, HDRip] [MP4, 960x] Dub (Rus, Ukr), Original, Sub (rus, ukr, eng) Galfimbul 11092419831.03 GB 0 0 1482055561

13:06

18-Дек-16

Еще никто не оставлял запись к записи скачать торрент [VIDEO] Эдди «Орел» Eddie the Eagle . Будь первым!

!Обратная связь